.
Авторизация | Регистрация
» » Незнакомец / The Prowler (1981) BDRip by msltel | P, A торрент скачать бесплатно




    Незнакомец / The Prowler (1981) BDRip by msltel | P, A торрент скачать бесплатно

    Опубликовал: Админ | Дата: 27-02-2015, 11:09 | Просмотров: 386



    Русское название: Незнакомец
    Русское название в мировом прокате: The Prowler
    Создали в: 1981
    Категория жанра: Ужасы, триллер, детектив
    Снималось в: США, Graduation
    Главный режиссер: Джозеф Зито
    Актеры: Вики Даусон, Кристофер Гутмэн, Лоуренс Тирни, Фарли Грейнджер, Синди Вентрауб, Лиза Дансхет, Дэвид Седерхолм, Билл Нуннери, Том Брэй, Дайан Роуд, Брайан Инглунд, Донна Дэвис, Карлтон Карпентер, Джой Глаккум, Тимоти Уорер, Джон Сайц, Билл Хью Коллинз, Дэн Лоунсбери, Дуглас Стивенсон, Сьюзэн Монтс, Питер Джулиано, Джонатан Сачар

    Сюжет фильма: В 1945 году, после окончания второй мировой, на родину возвращаются ветераны, но одного из них вероломно бросила его девушка, когда тот был на фронте, о чём оная девушка даже не побоялась написать ему в письме. В тихом американском городке проходит выпускной бал, но для этой девушки и его нового парня он становится последним, ибо незнакомец в армейском обмундировании насаживает влюблённую парочку на вилы, после чего романтично кладёт в остывающую руку девушки красную розу... Прошло 35 лет, в течение которых в память о тех ужасных событиях в городке выпускные балы не проводились. Но в этом году муниципалитет решил нарушить эту традицию и порадовать выпускников школы первым за 35 лет выпускным балом. Однако сделано это было опрометчиво, ибо незнакомец и не думал уходить из города, и в эту ночь он снова выйдет убивать…

    Качество фильма: BDRip
    Размер скачиваемого торрента: 1.85 ГБ
    Время просмотра: 01:28:16

    Информация о видео: XviD, 1900 Кбит/с,720x384
    Информация о звуке 1: русский, 48 kHz, AC3, 2 ch, 192 kbps avg, Профессиональный многоголосый, Селена Интернешнл
    Информация о звуке 2: русский, 48 kHz, AC3, 6 ch, 448 kbps avg, Авторский, Максим Логинов

    Внешние файлы
    Информация о звуке: английский, 48 kHz, AC3, 6 ch, 448 kbps avg, Оригинал
    Субтитры: английские

    Исходник: ananasix (Кинозал)

    Сравнение с исходником



    MediaInfo
    Общее
    Полное имя : E:VideoNeznakomec.1981.XviD.BDRipNeznakomec.1981.eng.srt
    Формат : SubRip
    Размер файла : 48,1 Кбайт

    Текст
    Формат : SubRip
    Метод сжатия : Без потерь

    Общее
    Полное имя : E:VideoNeznakomec.1981.XviD.BDRipNeznakomec.1981.Original.eng.ac3
    Формат : AC-3
    Формат/Информация : Audio Coding 3
    Размер файла : 283 Мбайт
    Продолжительность : 1 ч. 28 м.
    Режим общего битрейта : Постоянный
    Общий поток : 448 Кбит/сек

    Аудио
    Формат : AC-3
    Формат/Информация : Audio Coding 3
    Расширение режима : CM (complete main)
    Параметр Endianness формата : Big
    Продолжительность : 1 ч. 28 м.
    Вид битрейта : Постоянный
    Битрейт : 448 Кбит/сек
    Каналы : 6 каналов
    Расположение каналов : Front: L C R, Side: L R, LFE
    Частота : 48,0 КГц
    Битовая глубина : 16 бит
    Метод сжатия : С потерями
    Размер потока : 283 Мбайт (100%)

    Общее
    Полное имя : E:VideoNeznakomec.1981.XviD.BDRipNeznakomec.1981.XviD.BDRip.avi
    Формат : AVI
    Формат/Информация : Audio Video Interleave
    Размер файла : 1,57 Гбайт
    Продолжительность : 1 ч. 28 м.
    Общий поток : 2554 Кбит/сек
    Программа кодирования : VirtualDubMod 1.5.10.2 (build 2540/release)
    Библиотека кодирования : VirtualDubMod build 2540/release

    Видео
    Идентификатор : 0
    Формат : MPEG-4 Visual
    Профиль формата : Advanced Simple@L5
    Параметр BVOP формата : 1
    Параметр QPel формата : Нет
    Параметр GMC формата : Без точки перехода
    Параметр матрицы формата : Default (H.263)
    Режим смешивания : Сжатый битовый поток
    Идентификатор кодека : XVID
    Идентификатор кодека/Подсказка : XviD
    Продолжительность : 1 ч. 28 м.
    Битрейт : 1900 Кбит/сек
    Ширина : 720 пикселей
    Высота : 384 пикселя
    Соотношение сторон : 1,85:1
    Частота кадров : 23,976 кадра/сек
    Цветовое пространство : YUV
    Субдискретизация насыщенности : 4:2:0
    Битовая глубина : 8 бит
    Тип развёртки : Прогрессивная
    Метод сжатия : С потерями
    Бит/(Пиксели*Кадры) : 0.287
    Размер потока : 1,17 Гбайт (74%)
    Библиотека кодирования : XviD 1.2.1 (UTC 2008-12-04)

    Аудио #1
    Идентификатор : 1
    Формат : AC-3
    Формат/Информация : Audio Coding 3
    Расширение режима : CM (complete main)
    Параметр Endianness формата : Big
    Идентификатор кодека : 2000
    Продолжительность : 1 ч. 27 м.
    Вид битрейта : Постоянный
    Битрейт : 192 Кбит/сек
    Каналы : 2 канала
    Расположение каналов : Front: L R
    Частота : 48,0 КГц
    Битовая глубина : 16 бит
    Метод сжатия : С потерями
    Размер потока : 121 Мбайт (7%)
    Выравнивание : Разделение по промежуткам
    Продолжительность промежутка : 42 мс. (1,00 видеокадр)
    Время предзагрузки промежутка : 500 мс.

    Аудио #2
    Идентификатор : 2
    Формат : AC-3
    Формат/Информация : Audio Coding 3
    Расширение режима : CM (complete main)
    Параметр Endianness формата : Big
    Идентификатор кодека : 2000
    Продолжительность : 1 ч. 28 м.
    Вид битрейта : Постоянный
    Битрейт : 448 Кбит/сек
    Каналы : 6 каналов
    Расположение каналов : Front: L C R, Side: L R, LFE
    Частота : 48,0 КГц
    Битовая глубина : 16 бит
    Метод сжатия : С потерями
    Размер потока : 283 Мбайт (18%)
    Выравнивание : Разделение по промежуткам
    Продолжительность промежутка : 42 мс. (1,00 видеокадр)
    Время предзагрузки промежутка : 500 мс.

    Скриншоты для ознакомления




    Залил: msltel
    Размер скачиваемого торрента: 1.85 GB (1987408191 Bytes)

    Незнакомец / The Prowler (1981) BDRip by msltel | P, A торрент скачать бесплатно
    загрузка...
    Рейтинг →
     (голосов: 1, оценка 5/5, голосовать можно 1 раз )

    Другие торренты по теме:

  • Идеальный незнакомец / Perfect Stranger (2007) BDRip 1080p торрент скачать бесплатно
  • Незнакомец и незнакомка / Anjaana Anjaani (2010) DVDRip | Лицензия торрент скачать бесплатно
  • OST - Когда звонит незнакомец / When A Stranger Calls (2006) MP3 торрент скачать бесплатно
  • Незнакомец внутри / The Stranger Within (2013) DVDRip от Youtracker | P | лицензия торрент скачать бесплатно
  • Незнакомец внутри / The Stranger Within (2013) DVDRip от Youtracker | D | лицензия торрент скачать бесплатно
  • Незнакомец внутри / The Stranger Within (2013) DVDRip-AVC от Youtracker | P | лицензия торрент скачать бесплатно
  • Незнакомец внутри / The Stranger Within (2013) DVD9 R5 от Youtracker | P | лицензия торрент скачать бесплатно
  • Незнакомец внутри / The Stranger Within (2013) DVD5 от Youtracker | P | сжатый торрент скачать бесплатно


    • Комментарии (0):

      Информация

      Информация

        Посетители, находящиеся в группе Гости, не могут оставлять комментарии в данной новости.

        ↓ Меню



        ↓ Опрос

        А Вы добавили сайт в закладки?
        Да
        Не


        Top 10 за неделю (Фильмы)