.
Авторизация | Регистрация
» » Росомаха: Бессмертный / The Wolverine (2013) BDRemux 1080p от ExKinoRay | THEATRICAL | L, P торрент скачать бесплатно




    Росомаха: Бессмертный / The Wolverine (2013) BDRemux 1080p от ExKinoRay | THEATRICAL | L, P торрент скачать бесплатно

    Опубликовал: Админ | Дата: 27-02-2015, 11:09 | Просмотров: 547




    Детально о кино

    Русское название: Росомаха: Бессмертный
    Русское название в мировом прокате: The Wolverine
    Создали в: 2013
    Категория жанра: Фантастика, фэнтези, боевик, приключения
    Снималось в: США, 20th Century Fox Film Corporation, Big Screen Productions, Donners; Company, Dune Entertainment
    Главный режиссер: Джеймс Мэнголд
    Актеры: Хью Джекман, Фамке Янссен, Брайан Ти, Уилл Юн Ли, Светлана Ходченкова, Хироюки Санада, Тао Окамото, Рила Фукусима, Джеймс Фрайзер, Харукико Яманоути


    Сюжет фильма: Новая глава приключений Росомахи развернётся в Японии, где Логану предстоит выяснить, что острее — когти Росомахи или меч Серебряного Самурая.






    Файл

    Качество фильма: Blu-Ray Remux (1080p)
    Информация о видео: MPEG-4 AVC, 22420 Кбит/с, 1920x1080, 23.976 кадр/с
    Информация о звуке: Русский (AC3, 2 ch, 128 Кбит/с), (AC3, 6 ch, 384 Кбит/с), английский (DTS-HD MA, 8 ch, 5363 Кбит/с)
    Размер скачиваемого торрента: 24.87 ГБ
    Время просмотра: 02:06:08
    Перевод текста: Дублированный, профессиональный многоголосый закадровый
    Субтитры: Aнглийские


    Аудио1: Дублированный (Любительский) не кинотеатральный, полный перевод.
    Аудио2: Профессиональный многоголосый (BaibaKo), полный перевод.



    Инфо-файл

    Общее
    Уникальный идентификатор : 234010621877811879357125689358725010304 (0xB00CCE7018035EA4A555967333ADD380)
    Полное имя : C:ЗагрузкиThe.Wolverine.2013.(Theatrical).BDRemux.(1080p.).ExKinoRay (1).mkv
    Формат : Matroska
    Версия формата : Version 2
    Размер файла : 24,9 Гбайт
    Продолжительность : 2 ч. 6 м.
    Режим общего битрейта : Переменный
    Общий поток : 28,2 Мбит/сек
    Название фильма : Росомаха: Бессмертный.(Театральная версия).Сборка ремукса: ollan
    Дата кодирования : UTC 2013-11-08 20:28:28
    Программа кодирования : mkvmerge v5.6.0 (;Kenya Kane;) built on May 27 2012 16:44:04
    Библиотека кодирования : libebml v1.2.3 libmatroska v1.3.0

    Видео
    Идентификатор : 1
    Формат : AVC
    Формат/Информация : Advanced Video Codec
    Профиль формата : High@L4.1
    Параметр CABAC формата : Да
    Параметр ReFrames формата : 4 кадра
    Идентификатор кодека : V_MPEG4/ISO/AVC
    Продолжительность : 2 ч. 6 м.
    Вид битрейта : Переменный
    Максимальный битрейт : 35,0 Мбит/сек
    Ширина : 1920 пикселей
    Высота : 1080 пикселей
    Соотношение сторон : 16:9
    Режим частоты кадров : Постоянный
    Частота кадров : 23,976 кадра/сек
    Цветовое пространство : YUV
    Субдискретизация насыщенности : 4:2:0
    Битовая глубина : 8 бит
    Тип развёртки : Прогрессивная
    Default : Да
    Forced : Нет

    Аудио #1
    Идентификатор : 2
    Формат : AC-3
    Формат/Информация : Audio Coding 3
    Расширение режима : CM (complete main)
    Параметр Endianness формата : Big
    Идентификатор кодека : A_AC3
    Продолжительность : 2 ч. 6 м.
    Вид битрейта : Постоянный
    Битрейт : 128 Кбит/сек
    Каналы : 2 канала
    Расположение каналов : Front: L R
    Частота : 48,0 КГц
    Битовая глубина : 16 бит
    Метод сжатия : С потерями
    Размер потока : 115 Мбайт (0%)
    Заголовок : Дублированный (не кинотеатральный)
    Default : Да
    Forced : Да

    Аудио #2
    Идентификатор : 3
    Формат : AC-3
    Формат/Информация : Audio Coding 3
    Расширение режима : CM (complete main)
    Параметр Endianness формата : Big
    Идентификатор кодека : A_AC3
    Продолжительность : 2 ч. 6 м.
    Вид битрейта : Постоянный
    Битрейт : 384 Кбит/сек
    Каналы : 6 каналов
    Расположение каналов : Front: L C R, Side: L R, LFE
    Частота : 48,0 КГц
    Битовая глубина : 16 бит
    Метод сжатия : С потерями
    Размер потока : 346 Мбайт (1%)
    Заголовок : Профессиональный многоголосый (BaibaKo)
    Язык : Russian
    Default : Нет
    Forced : Нет

    Аудио #3
    Идентификатор : 4
    Формат : DTS
    Формат/Информация : Digital Theater Systems
    Профиль формата : MA / Core
    Режим : 16
    Параметр Endianness формата : Big
    Идентификатор кодека : A_DTS
    Продолжительность : 2 ч. 6 м.
    Вид битрейта : Переменный
    Битрейт : Неизвестно / 1509 Кбит/сек
    Каналы : 8 каналов / 6 каналов
    Расположение каналов : Front: L C R, Side: L R, Back: L R, LFE / Front: L C R, Side: L R, LFE
    Частота : 48,0 КГц
    Битовая глубина : 24 бит
    Метод сжатия : Без потерь / Lossy
    Язык : English
    Default : Нет
    Forced : Нет

    Текст
    Идентификатор : 5
    Формат : PGS
    Режим смешивания : zlib
    Идентификатор кодека : S_HDMV/PGS
    Идентификатор кодека/Информация : The same subtitle format used on BDs/HD-DVDs
    Язык : English
    Default : Нет
    Forced : Нет

    Меню
    00:00:00.000 : :Chapter 01
    00:05:03.720 : :Chapter 03
    00:07:39.667 : :Chapter 05
    00:08:40.436 : :Chapter 07
    00:10:25.499 : :Chapter 09
    00:13:56.794 : :Chapter 11
    00:16:49.299 : :Chapter 13
    00:19:13.068 : :Chapter 15
    00:22:03.321 : :Chapter 17
    00:26:38.304 : :Chapter 19
    00:28:53.398 : :Chapter 21
    00:30:21.402 : :Chapter 23
    00:33:43.145 : :Chapter 25
    00:38:08.244 : :Chapter 27
    00:42:42.309 : :Chapter 29
    00:44:19.072 : :Chapter 31
    00:47:06.740 : :Chapter 33
    00:52:38.279 : :Chapter 35
    00:54:37.315 : :Chapter 37
    01:00:06.477 : :Chapter 39
    01:06:16.221 : :Chapter 41
    01:11:36.959 : :Chapter 43
    01:16:25.205 : :Chapter 45
    01:19:30.807 : :Chapter 47
    01:22:34.574 : :Chapter 49
    01:27:33.205 : :Chapter 51
    01:30:37.139 : :Chapter 53
    01:33:00.032 : :Chapter 55
    01:36:33.203 : :Chapter 57
    01:40:14.216 : :Chapter 59
    01:43:04.511 : :Chapter 61
    01:46:07.569 : :Chapter 63
    01:51:06.075 : :Chapter 65
    01:53:01.482 : :Chapter 67
    01:55:50.776 : :Chapter 69
    01:57:21.450 : :Chapter 71
    02:06:08.310 : :Chapter 73


    Скриншоты для ознакомления






    Релиз подготовил: Сборка:
    Залил: ollan
    Размер скачиваемого торрента: 24.87 GB (26698730094 Bytes)

    Росомаха: Бессмертный / The Wolverine (2013) BDRemux 1080p от ExKinoRay | THEATRICAL | L, P торрент скачать бесплатно
    загрузка...
    Рейтинг →
     (голосов: 1, оценка 5/5, голосовать можно 1 раз )

    Другие торренты по теме:

  • Росомаха: Бессмертный / The Wolverine (2013) HD 1080p | Трейлер торрент скачать бесплатно
  • Росомаха: Бессмертный / The Wolverine (2013) TS торрент скачать бесплатно
  • OST - Росомаха: Бессмертный / The Wolverine (2013) MP3 торрент скачать бесплатно
  • Росомаха: Бессмертный / The Wolverine (2013) WEBRip | Звук с TS скачать через торрент бесплатно
  • Росомаха: Бессмертный / The Wolverine (2013) DVDRip | Звук с TS скачать через торрент бесплатно
  • Росомаха: Бессмертный / The Wolverine (2013) HDRip | EXTENDED | Звук с TS торрент скачать бесплатно
  • Росомаха: Бессмертный / The Wolverine (2013) HDRip-AVC | Расширенная версия | DL скачать через торрент бесплатно
  • Росомаха: Бессмертный / The Wolverine (2013) HDRip | Teatrical | BaibaKo от INTERCINEMA скачать через торрент бесплатно


    • Комментарии (0):

      Информация

      Информация

        Посетители, находящиеся в группе Гости, не могут оставлять комментарии в данной новости.

        ↓ Меню



        ↓ Опрос

        А Вы добавили сайт в закладки?
        Да
        Не


        Top 10 за неделю (Фильмы)