.
Авторизация | Регистрация
» » Привет, Герман! / Hello Herman (2012) HDRip от BitTracker | L2 торрент скачать бесплатно




    Привет, Герман! / Hello Herman (2012) HDRip от BitTracker | L2 торрент скачать бесплатно

    Опубликовал: Админ | Дата: 27-02-2015, 11:09 | Просмотров: 350



    Детально о кино
    Русское название: Привет, Герман!
    Русское название в мировом прокате: Hello Herman
    Создали в: 2012
    Категория жанра: драма
    Главный режиссер: Мишель Дэннер / Michelle Danner
    Актеры: Норман Ридус, Гаррет Бэкстром, Марта Игареда, Роб Эстес, Сабрина Деблер, Энди МакФи, Оливия Фэй, Джейк Уайт, Алекс Нойбергер, Линдсэй Бушмен

    Сюжет фильма:
    В одном из провинциальных городов США шестнадцатилетний Герман Говардс приносит в свою школу оружие и расстреливает тридцать девять учеников, двух учителей и офицера полиции. Эту бойню Герман снимает на камеру, и незадолго до ареста, посылает по электронной почте видео своему кумиру, известному журналисту Лаксу Моралесу. В этом видео он говорит Лаксу, что хочет рассказать свою историю в его передаче.




    Снималось в: США
    Время просмотра: 01:27:33
    Перевод текста: Любительский (двухголосый) DeadSno den904

    Файл
    Кодек для видео: XviD
    Качество фильма: HDRip (Исх. BDRip 1080p PSYCHD)
    Информация о видео: 704x384 (1.83:1), 23.976 fps, XviD build 50 ~2177 kbps avg, 0.34 bit/pixel
    Информация о звуке: 48 kHz, AC3 Dolby Digital, 2/0 (L,R) ch, ~192.00 kbps avg
    Субтитры: нет

    Семпл

    MediaInfo

    Общее
    Полное имя : S:ФильмыПривет, Герман. 2012. HDRip. 1.45 (AleksSin).avi
    Формат : AVI
    Формат/Информация : Audio Video Interleave
    Размер файла : 1,45 Гбайт
    Продолжительность : 1 ч. 27 м.
    Общий поток : 2378 Кбит/сек
    Программа кодирования : VirtualDubMod 1.5.10.3 | www.virtualdub-fr.org || (build 2550/release)
    Библиотека кодирования : VirtualDubMod build 2550/release

    Видео
    Идентификатор : 0
    Формат : MPEG-4 Visual
    Профиль формата : Advanced Simple@L5
    Параметр BVOP формата : 2
    Параметр QPel формата : Нет
    Параметр GMC формата : Без точки перехода
    Параметр матрицы формата : Default (H.263)
    Идентификатор кодека : XVID
    Идентификатор кодека/Подсказка : XviD
    Продолжительность : 1 ч. 27 м.
    Битрейт : 2177 Кбит/сек
    Ширина : 704 пикс.
    Высота : 384 пикс.
    Соотношение сторон : 16:9
    Частота кадров : 23,976 кадр/сек
    Цветовое пространство : YUV
    Подвыборка цветности : 4:2:0
    Битовая глубина : 8 бит
    Тип развёртки : Прогрессивная
    Метод сжатия : С потерями
    Бит/(Пиксели*Кадры) : 0.336
    Размер потока : 1,33 Гбайт (92%)
    Библиотека кодирования : XviD 1.2.1 (UTC 2008-12-04)

    Аудио
    Идентификатор : 1
    Формат : AC-3
    Формат/Информация : Audio Coding 3
    Расширение режима : CM (complete main)
    Идентификатор кодека : 2000
    Продолжительность : 1 ч. 27 м.
    Вид битрейта : Постоянный
    Битрейт : 192 Кбит/сек
    Каналы : 2 канала
    Расположение каналов : Front: L R
    Частота : 48,0 КГц
    Битовая глубина : 16 бит
    Метод сжатия : С потерями
    Размер потока : 120 Мбайт (8%)
    Выравнивание : Разделение по промежуткам
    Продолжительность промежутка : 42 мс. (1,00 видеокадр)
    Время предзагрузки промежутка : 500 ms

    Скриншоты для ознакомления


    Релиз подготовил:
    Залил: AleksSin
    Размер скачиваемого торрента: 1.45 GB (1561905152 Bytes)

    Привет, Герман! / Hello Herman (2012) HDRip от BitTracker | L2 торрент скачать бесплатно
    загрузка...
    Рейтинг →
     (голосов: 1, оценка 3/5, голосовать можно 1 раз )

    Другие торренты по теме:

  • Привет Герман / Hello Herman (2012) WEB-DLRip | L2 торрент скачать бесплатно
  • Привет, Герман / Hello Herman (2012) BDRip 720p от CINEMANIA | L2 торрент скачать бесплатно
  • Привет, Герман / Hello Herman (2012) BDRip 1080p от CINEMANIA | L2 торрент скачать бесплатно
  • Привет, Герман! / Hello Herman (2012) HDRip от BitTracker торрент скачать бесплатно


    • Комментарии (0):

      Информация

      Информация

        Посетители, находящиеся в группе Гости, не могут оставлять комментарии в данной новости.

        ↓ Меню



        ↓ Опрос

        А Вы добавили сайт в закладки?
        Да
        Не


        Top 10 за неделю (Фильмы)