.
Авторизация | Регистрация
» » Счастливчик / The Lucky One (2012) HDRip от New-Team | D | Лицензия торрент скачать бесплатно




    Счастливчик / The Lucky One (2012) HDRip от New-Team | D | Лицензия торрент скачать бесплатно

    Опубликовал: Админ | Дата: 27-02-2015, 11:09 | Просмотров: 334

    Счастливчик
    The Lucky One



    Снималось в: США
    Категория жанра: драма, мелодрама
    Создали в: 2012
    Время просмотра: 01:40:53

    Перевод текста: Профессиональный (дублированный) Лицензия
    Субтитры подготовлены: нет
    Главный режиссер: Скотт Хикс / Scott Hicks

    Актеры: Зак Эфрон, Тейлор Шиллинг, Блайт Даннер, Райли Стюарт, Джей Р. Фергюсон, Адам ЛеФевр, Роберт Хэйес, Джо Крест, Расселл Дархэм Комегис, Шарон Моррис, Энн МакКензи, Кендал Е. Таттл...

    Сюжет: Морской пехотинец Логан Тибо сумел остаться в живых после трех военных миссий в Ираке. Своим талисманом он считает фото, которое всегда носит с собой - на нем совершенно незнакомая ему женщина. По возвращении в Северную Каролину Тибо решает разыскать ее.

    Автор рипа: _Flash

    Раздача от:


    Качество фильма видео: HDRip
    Тип видео видео: AVI

    Информация о видео: 720x304, 23.976 fps, XviD build 73 ~1611 kbps avg, 0.307 bit/pixel
    Информация о звуке: 48 kHz, AC3 Dolby Digital, 3/2 (L,C,R,l,r) LFE ch, ~448 kbps

    Отчёт MediaInfo

    Общее
    Полное имя : D:The.Lucky.One.2012.HDRip.By_Flash.avi
    Формат : AVI
    Формат/Информация : Audio Video Interleave
    Размер файла : 1,46 Гбайт
    Продолжительность : 1 ч. 40 м.
    Общий поток : 2068 Кбит/сек
    Программа кодирования : VirtualDubMod 1.5.10.3 | www.virtualdub-fr.org || (build 2550/release)
    Библиотека кодирования : VirtualDubMod build 2550/release

    Видео
    Идентификатор : 0
    Формат : MPEG-4 Visual
    Профиль формата : Advanced Simple@L5
    Параметр BVOP формата : 1
    Параметр QPel формата : Нет
    Параметр GMC формата : Без точки перехода
    Параметр матрицы формата : Выборочная
    Идентификатор кодека : XVID
    Идентификатор кодека/Подсказка : XviD
    Продолжительность : 1 ч. 40 м.
    Битрейт : 1611 Кбит/сек
    Ширина : 720 пикселей
    Высота : 304 пикселя
    Соотношение сторон : 2,35:1
    Частота кадров : 23,976 кадра/сек
    Цветовое пространство : YUV
    Субдискретизация насыщенности : 4:2:0
    Битовая глубина : 8 бит
    Тип развёртки : Прогрессивная
    Метод сжатия : С потерями
    Бит/(Пиксели*Кадры) : 0.307
    Размер потока : 1,14 Гбайт (78%)
    Библиотека кодирования : XviD 73

    Аудио
    Идентификатор : 1
    Формат : AC-3
    Формат/Информация : Audio Coding 3
    Расширение режима : CM (complete main)
    Параметр Endianness формата : Big
    Идентификатор кодека : 2000
    Продолжительность : 1 ч. 40 м.
    Вид битрейта : Постоянный
    Битрейт : 448 Кбит/сек
    Каналы : 6 каналов
    Расположение каналов : Front: L C R, Side: L R, LFE
    Частота : 48,0 КГц
    Битовая глубина : 16 бит
    Метод сжатия : С потерями
    Размер потока : 323 Мбайт (22%)
    Выравнивание : Разделение по промежуткам
    Продолжительность промежутка : 42 мс. (1,00 видеокадр)
    Время предзагрузки промежутка : 500 мс.



    Скриншоты для ознакомления



    Залил: Flash_
    Размер скачиваемого торрента: 1.46 GB (1565024256 Bytes)

    Счастливчик / The Lucky One (2012) HDRip от New-Team | D | Лицензия торрент скачать бесплатно
    загрузка...
    Рейтинг →
     (голосов: 1, оценка 5/5, голосовать можно 1 раз )

    Другие торренты по теме:

  • О, счастливчик / O Lucky Man! (1973) DVDRip-AVC | D, P2, A торрент скачать бесплатно
  • Счастливчик Гилмор / Happy Gilmore (1996) BDRip 1080p от Freeisland торрент скачать бесплатно
  • Счастливчик Гилмор / Happy Gilmore (1996) HDRip-AVC от Youtracker скачать через торрент бесплатно
  • Счастливчик / The Lucky One (2012) BDRip 720p от leonardo 59 Scarabey | Лицензия торрент скачать бесплатно
  • Счастливчик Александр / Alexandre le bienheureux (1968) BDRip-AVC от ExKinoRay | A торрент скачать бесплатно
  • Счастливчик Александр / Alexandre le bienheureux (1968) BDRip от ExKinoRay | A скачать через торрент бесплатно
  • О, счастливчик / O Lucky Man! (1973) HDTVRip-AVC 720p | D, P2, P, A торрент скачать бесплатно
  • Счастливчик Гилмор / Happy Gilmore (1996) HDRip от Scarabey | Р торрент скачать бесплатно


    • Комментарии (0):

      Информация

      Информация

        Посетители, находящиеся в группе Гости, не могут оставлять комментарии в данной новости.

        ↓ Меню



        ↓ Опрос

        А Вы добавили сайт в закладки?
        Да
        Не


        Top 10 за неделю (Фильмы)