.
Авторизация | Регистрация
Хочешь лучшие торренты? Добавь свой email!
Добавить
» » Вулкан / Volcano (1997) BDRip от MediaClub | D, P, A торрент скачать бесплатно




    Вулкан / Volcano (1997) BDRip от MediaClub | D, P, A торрент скачать бесплатно

    Опубликовал: Админ | Дата: 27-02-2015, 11:09 | Просмотров: 307



    Детально о кино
    Русское название: Вулкан
    Русское название в мировом прокате: Volcano
    Создали в: 1997
    Категория жанра: Боевик, фильм-катастрофа, драма, триллер
    Главный режиссер: Мик Джексон
    Актеры: Томми Ли Джонс, Энн Хеч, Гэби Хоффманн, Дон Чидл, Жаклин Ким, Кит Дэвид, Джон Корбетт, Майкл Рисполи, Джон Кэрролл Линч, Марсело Тедфорд

    Сюжет фильма:
    Лос — Анджелес на своем веку достаточно повидал стихийных бедствий: землетрясений, пожаров, наводнений. Но сейчас городу ангелов предстоит столкнуться с самой страшной из когда — либо переживаемых им катастроф, которая грозит стереть его с лица земли.В одном из самых населенных районов Лос — Анджелеса внезапно пришел в активное действие вулкан. Раскаленная, грозящая смертью лава уже начала выплескиваться на улицы, запруженные автомобилями…Но, как всегда, герой появляется вовремя — на этот раз в облике мужественного офицера службы спасения в случае стихийных бедствий, который возглавляет борьбу со стихией…



    Снималось в: США / 20th Century Fox
    Время просмотра: 01:43:51
    Перевод текста: Дублированный, профессиональный многоголосый, авторский

    Файл
    Кодек для видео: XviD
    Качество фильма: BDRip
    Информация о видео: XviD, 1900 Кбит/с, 720x400
    Информация о звуке #1: Русский (AC3, 2 ch, 192 Кбит/с) / Дублированный
    Информация о звуке #2: Русский (AC3, 6 ch, 448 Кбит/с) / Профессиональный многоголосый
    Информация о звуке #3: Русский (AC3, 6 ch, 448 Кбит/с) / Авторский одноголосый (Ю. Живов)
    Субтитры: Русские, английские

    Семпл

    MI
    Format : AVI
    Format/Info : Audio Video Interleave
    Format profile : OpenDML
    File size : 2.19 GiB
    Duration : 1h 43mn
    Overall bit rate : 3 012 Kbps
    Movie name : Vulkan.1997.XviD.BDRip-MediaClub
    Director : -=MediaClub - Odessit=-
    Writing application : VirtualDubMod 1.5.10.3 (build 2550/release)

    Video
    ID : 0
    Format : MPEG-4 Visual
    Format profile : Advanced Simple@L5
    Format settings, BVOP : 1
    Format settings, QPel : No
    Format settings, GMC : No warppoints
    Format settings, Matrix : Custom
    Codec ID : XVID
    Codec ID/Hint : XviD
    Duration : 1h 43mn
    Bit rate : 1 900 Kbps
    Width : 720 pixels
    Height : 400 pixels
    Display aspect ratio : 16:9
    Frame rate : 23.976 fps
    Color space : YUV
    Chroma subsampling : 4:2:0
    Bit depth : 8 bits
    Scan type : Progressive
    Compression mode : Lossy
    Bits/(Pixel*Frame) : 0.275
    Stream size : 1.38 GiB (63%)
    Writing library : XviD 73

    Audio #1
    ID : 1
    Format : AC-3
    Format/Info : Audio Coding 3
    Mode extension : CM (complete main)
    Codec ID : 2000
    Duration : 1h 43mn
    Bit rate mode : Constant
    Bit rate : 192 Kbps
    Channel(s) : 2 channels
    Channel positions : Front: L R
    Sampling rate : 48.0 KHz
    Bit depth : 16 bits
    Compression mode : Lossy
    Stream size : 143 MiB (6%)
    Alignment : Split accross interleaves
    Interleave, duration : 42 ms (1.00 video frame)
    Interleave, preload duration : 500 ms

    Audio #2
    ID : 2
    Format : AC-3
    Format/Info : Audio Coding 3
    Mode extension : CM (complete main)
    Codec ID : 2000
    Duration : 1h 43mn
    Bit rate mode : Constant
    Bit rate : 448 Kbps
    Channel(s) : 6 channels
    Channel positions : Front: L C R, Side: L R, LFE
    Sampling rate : 48.0 KHz
    Bit depth : 16 bits
    Compression mode : Lossy
    Stream size : 333 MiB (15%)
    Alignment : Split accross interleaves
    Interleave, duration : 42 ms (1.00 video frame)
    Interleave, preload duration : 500 ms

    Audio #3
    ID : 3
    Format : AC-3
    Format/Info : Audio Coding 3
    Mode extension : CM (complete main)
    Codec ID : 2000
    Duration : 1h 43mn
    Bit rate mode : Constant
    Bit rate : 448 Kbps
    Channel(s) : 6 channels
    Channel positions : Front: L C R, Side: L R, LFE
    Sampling rate : 48.0 KHz
    Bit depth : 16 bits
    Compression mode : Lossy
    Stream size : 333 MiB (15%)
    Alignment : Split accross interleaves
    Interleave, duration : 42 ms (1.00 video frame)
    Interleave, preload duration : 500 ms


    Скриншоты для ознакомления


    Релиз подготовил: |
    Размер скачиваемого торрента: 2.19 GB (2346443925 Bytes)

    Вулкан / Volcano (1997) BDRip от MediaClub | D, P, A торрент скачать бесплатно
    загрузка...
    Рейтинг →
     (голосов: 1, оценка 4/5, голосовать можно 1 раз )

    Другие торренты по теме:

  • VA - Вулкан удовольствий зимний. Сборник 50 / 50 (2013) MP3
  • VA - Вулкан удовольствий зимний. Зарубежный выпуск (2013) MP3
  • Сборник - Зимний вулкан удовольствий. Русский выпуск (2013) MP3
  • Вулкан / Volcano (1997) BDRemux 1080p от MediaClub | D, P, A
  • Вулкан / Volcano (1997) BDRip 720p от MediaClub | D, P, A скачать через торрент бесплатно
  • Вулкан / Volcano (1997) BDRip-AVC от MediaClub | D, P, A
  • Вулкан / Volcano (1997) BDRip от Rulya74 | D, A
  • Вулкан / Volcano (1997) BDRip 1080p | D, P, A скачать через торрент бесплатно


    • Комментарии (0):

      Информация

      Информация

        Посетители, находящиеся в группе Гости, не могут оставлять комментарии в данной новости.

        ↓ Меню



        ↓ Опрос

        А Вы добавили сайт в закладки?
        Да
        Не


        Top 10 за месяц (Фильмы)