.
Авторизация | Регистрация
Хочешь лучшие торренты? Добавь свой email!
Добавить
» » Влюбленный скорпион / Alacrn enamorado (2013) HDRip от New-Team | D | Лицензия торрент скачать бесплатно




    Влюбленный скорпион / Alacrn enamorado (2013) HDRip от New-Team | D | Лицензия торрент скачать бесплатно

    Опубликовал: Админ | Дата: 27-02-2015, 11:09 | Просмотров: 261

    Влюбленный скорпион
    Alacran enamorado



    Снималось в: Испания / Morena Films
    Категория жанра: триллер, драма, мелодрама
    Создали в: 2013
    Время просмотра: 01:40:05

    Перевод текста: Профессиональный (дублированный) Лицензия
    Субтитры подготовлены: нет
    Главный режиссер: Сантьяго Санноу / Santiago Zannou

    Актеры: Алекс Гонсалес, Джудит Диакате, Карлос Бардем, Мигель Анхель Сильвестре, Хавьер Бардем, Элио Сагуэс, Хавьер Мансебо, Досель Камана Гомбе, Карлос Каниовски, Малена Гутьеррес....

    Сюжет: Хулиан, член неонацистской группировки, цель которой — зачистка улиц от черных и арабов, начинает тренироваться у Карломонте, в прошлом прославленного боксера, а ныне — пьяницы, разрушившего свою жизнь. Но рядом с этим человеком, жестким и упрямым, Хулиан постепенно начинает меняться. Он отдаляется от бывших дружков, влюбляется в Алису, девушку, работающую в спортзале, у него появляется новый приятель — его чернокожий спарринг-партнер Фрэнки. Новая жизнь ему нравится больше, чем прежняя. Но главарь неонацистов Луис считает, что Хулиан предатель, а это значит, что он должен понести жестокое наказание.

    Автор рипа: _Flash

    Раздача от:



    Качество фильма видео: HDRip
    Тип видео видео: AVI

    Информация о видео: 720x304, 24,000 fps, XviD build 73 ~1690 kbps avg, 0.322 bit/pixel
    Информация о звуке: 48 kHz, AC3 Dolby Digital, 3/2 (L,C,R,l,r) LFE ch, ~384 kbps


    Отчёт MediaInfo

    Общее
    Полное имя : D:Vlublennyj.scorpion.2013.D.HDRip.By_Flash.avi
    Формат : AVI
    Формат/Информация : Audio Video Interleave
    Размер файла : 1,46 Гбайт
    Продолжительность : 1 ч. 40 м.
    Общий поток : 2083 Кбит/сек
    Программа кодирования : VirtualDubMod 1.5.10.3 | www.virtualdub-fr.org || (build 2550/release)
    Библиотека кодирования : VirtualDubMod build 2550/release

    Видео
    Идентификатор : 0
    Формат : MPEG-4 Visual
    Профиль формата : Advanced Simple@L5
    Параметр BVOP формата : 1
    Параметр QPel формата : Нет
    Параметр GMC формата : Без точки перехода
    Параметр матрицы формата : Выборочная
    Идентификатор кодека : XVID
    Идентификатор кодека/Подсказка : XviD
    Продолжительность : 1 ч. 40 м.
    Битрейт : 1690 Кбит/сек
    Ширина : 720 пикселей
    Высота : 304 пикселя
    Соотношение сторон : 2,35:1
    Частота кадров : 24,000 кадра/сек
    Цветовое пространство : YUV
    Субдискретизация насыщенности : 4:2:0
    Битовая глубина : 8 бит
    Тип развёртки : Прогрессивная
    Метод сжатия : С потерями
    Бит/(Пиксели*Кадры) : 0.322
    Размер потока : 1,18 Гбайт (81%)
    Библиотека кодирования : XviD 73

    Аудио
    Идентификатор : 1
    Формат : AC-3
    Формат/Информация : Audio Coding 3
    Расширение режима : CM (complete main)
    Параметр Endianness формата : Big
    Идентификатор кодека : 2000
    Продолжительность : 1 ч. 40 м.
    Вид битрейта : Постоянный
    Битрейт : 384 Кбит/сек
    Каналы : 6 каналов
    Расположение каналов : Front: L C R, Side: L R, LFE
    Частота : 48,0 КГц
    Битовая глубина : 16 бит
    Метод сжатия : С потерями
    Размер потока : 275 Мбайт (18%)
    Выравнивание : Разделение по промежуткам
    Продолжительность промежутка : 42 мс. (1,00 видеокадр)
    Время предзагрузки промежутка : 500 мс.



    Скриншоты для ознакомления



    Залил: Flash_
    Размер скачиваемого торрента: 1.46 GB (1563832320 Bytes)

    Влюбленный скорпион / Alacrn enamorado (2013) HDRip от New-Team | D | Лицензия торрент скачать бесплатно
    загрузка...
    Рейтинг →
     (голосов: 1, оценка 4/5, голосовать можно 1 раз )

    Другие торренты по теме:

  • Влюбленный скорпион / Alacrn enamorado (2013) HDRip-AVC | Лицензия
  • Влюбленный скорпион / Alacrn enamorado (2013) BDRip 720p | Лицензия
  • Влюбленный скорпион / Alacrn enamorado (2013) HDRip от InterCinema скачать через торрент бесплатно
  • Влюбленный скорпион / Alacrn enamorado (2013) HDRip от Scarabey | D | Лицензия скачать через торрент бесплатно
  • Влюбленный скорпион / Alacrn enamorado (2013) HDRip от Scarabey | D | Лицензия скачать через торрент бесплатно


    • Комментарии (0):

      Информация

      Информация

        Посетители, находящиеся в группе Гости, не могут оставлять комментарии в данной новости.

        ↓ Меню



        ↓ Опрос

        А Вы добавили сайт в закладки?
        Да
        Не


        Top 10 за месяц (Фильмы)