.
Авторизация | Регистрация
» » Два ствола / 2 Guns (2013) BDRip-AVC | Чистый звук торрент скачать бесплатно




    Два ствола / 2 Guns (2013) BDRip-AVC | Чистый звук торрент скачать бесплатно

    Опубликовал: Админ | Дата: 27-02-2015, 11:09 | Просмотров: 268



    Русское название: Два ствола
    Русское название в мировом прокате: 2 Guns
    Создали в: 2013
    Категория жанра: Боевик, триллер, драма, криминал
    Снималось в: США, Boom Entertainment, Emmett/Furla Films, Envision Entertainment Corporation, Foresight Unlimited, Herrick Entertainment, Hollywood Studios International, Marc Platt Productions, Red Hill Entertainment
    Время просмотра: 01:49:06
    Перевод текста: Дублированный - чистый звук кинотеатральный
    Субтитры: Английский (Full, SDH, SDH-Colored), Французкий, Испанский

    Главный режиссер: Бальтасар Кормакур

    Актеры: Марк Уолберг, Дензел Вашингтон, Джеймс Мэрсден, Пола Пэттон, Билл Пэкстон, Эви Томпсон, Эдвард Джеймс Олмос, Фред Уорд, Мэтт Кук, Роберт Джон Бёрк

    Сюжет фильма: Это история двух грабителей, которые на самом деле не те, кем кажутся. Один из них — агент из управления по борьбе с наркотиками, а другой — тайный агент разведки ВМС. Сами того не желая, они занимаются расследованием дел друг друга, а также воруют деньги у мафии. Через некоторое время героям придется украсть 50 миллионов долларов у ЦРУ.

    Качество фильма: BDRip-AVC
    Информация о видео: 1024 x 426 (2.404) at 23.976 fps, ~ 2090 Кбит/сек, 0.200 Bits/Pixel
    Информация о звуке #1: AC3 320 Кбит/сек (2ch), 48,0 КГц, 16 бит Русский, Дубляж
    Информация о звуке #2: AC3 384 Кбит/сек (6ch), 48,0 КГц, 16 бит Английский
    Информация о звуке #3: AC3 64 Кбит/сек (2ch), 48,0 КГц, 16 бит Английский комментарии
    Семпл

    Автор:
    MediaInfo:
    Формат : Matroska
    Версия формата : Version 2
    Размер файла : 2,18 Гбайт
    Продолжительность : 1 ч. 49 м.
    Общий поток : 2860 Кбит/сек
    Название фильма : 2_Guns.2013.BDRip.h264.2.18GB.NNM-CLUB.GIU
    Дата кодирования : UTC 2013-11-08 22:49:45
    Программа кодирования : mkvmerge v2.9.9 (;Tutu;) built on Nov 25 2009 21:13:32
    Библиотека кодирования : libebml v0.7.9 libmatroska v0.8.1

    Видео
    Идентификатор : 1
    Формат : AVC
    Формат/Информация : Advanced Video Codec
    Профиль формата : High@L4.1
    Параметр CABAC формата : Да
    Параметр ReFrames формата : 12 кадров
    Идентификатор кодека : V_MPEG4/ISO/AVC
    Продолжительность : 1 ч. 49 м.
    Битрейт : 2090 Кбит/сек
    Ширина : 1024 пикселя
    Высота : 426 пикселей
    Соотношение сторон : 2,40:1
    Режим частоты кадров : Постоянный
    Частота кадров : 23,976 кадра/сек
    Цветовое пространство : YUV
    Субдискретизация насыщенности : 4:2:0
    Битовая глубина : 8 бит
    Тип развёртки : Прогрессивная
    Бит/(Пиксели*Кадры) : 0.200
    Размер потока : 1,55 Гбайт (71%)
    Библиотека кодирования : x264 core 133 r2334 a3ac64b
    Настройки программы : cabac=1 / ref=12 / deblock=1:-3:-3 / analyse=0x3:0x113 / me=umh / subme=11 / psy=1 / psy_rd=1.00:0.25 / mixed_ref=0 / me_range=32 / chroma_me=1 / trellis=2 / 8x8dct=1 / cqm=0 / deadzone=21,11 / fast_pskip=1 / chroma_qp_offset=-4 / threads=12 / lookahead_threads=2 / sliced_threads=0 / nr=0 / decimate=0 / interlaced=0 / bluray_compat=0 / constrained_intra=0 / bframes=8 / b_pyramid=2 / b_adapt=2 / b_bias=0 / direct=3 / weightb=1 / open_gop=0 / weightp=2 / keyint=240 / keyint_min=23 / scenecut=40 / intra_refresh=0 / rc_lookahead=40 / rc=2pass / mbtree=1 / bitrate=2090 / ratetol=1.0 / qcomp=0.70 / qpmin=0 / qpmax=69 / qpstep=4 / cplxblur=20.0 / qblur=0.5 / vbv_maxrate=62500 / vbv_bufsize=78125 / nal_hrd=none / ip_ratio=1.40 / aq=1:1.00
    Язык : English
    Default : Нет
    Forced : Нет

    Аудио #1
    Идентификатор : 2
    Формат : AC-3
    Формат/Информация : Audio Coding 3
    Расширение режима : CM (complete main)
    Параметр Endianness формата : Big
    Идентификатор кодека : A_AC3
    Продолжительность : 1 ч. 49 м.
    Вид битрейта : Постоянный
    Битрейт : 320 Кбит/сек
    Каналы : 2 канала
    Расположение каналов : Front: L R
    Частота : 48,0 КГц
    Битовая глубина : 16 бит
    Метод сжатия : С потерями
    Размер потока : 250 Мбайт (11%)
    Заголовок : AC3.320Kbps (2ch) Russian (Дубляж)
    Язык : Russian
    Default : Да
    Forced : Нет

    Аудио #2
    Идентификатор : 3
    Формат : AC-3
    Формат/Информация : Audio Coding 3
    Расширение режима : CM (complete main)
    Параметр Endianness формата : Big
    Идентификатор кодека : A_AC3
    Продолжительность : 1 ч. 49 м.
    Вид битрейта : Постоянный
    Битрейт : 384 Кбит/сек
    Каналы : 6 каналов
    Расположение каналов : Front: L C R, Side: L R, LFE
    Частота : 48,0 КГц
    Битовая глубина : 16 бит
    Метод сжатия : С потерями
    Размер потока : 300 Мбайт (13%)
    Заголовок : AC3.384Kbps (6ch) English
    Язык : English
    Default : Нет
    Forced : Нет

    Аудио #3
    Идентификатор : 4
    Формат : AC-3
    Формат/Информация : Audio Coding 3
    Расширение режима : CM (complete main)
    Параметр Endianness формата : Big
    Идентификатор кодека : A_AC3
    Продолжительность : 1 ч. 49 м.
    Вид битрейта : Постоянный
    Битрейт : 64,0 Кбит/сек
    Каналы : 2 канала
    Расположение каналов : Front: L R
    Частота : 48,0 КГц
    Битовая глубина : 16 бит
    Метод сжатия : С потерями
    Размер потока : 50,0 Мбайт (2%)
    Заголовок : AC3.64.Kbps (2ch) English (Commentary)
    Язык : English
    Default : Нет
    Forced : Нет

    Текст #1
    Идентификатор : 5
    Формат : UTF-8
    Идентификатор кодека : S_TEXT/UTF8
    Идентификатор кодека/Информация : UTF-8 Plain Text
    Заголовок : English (Full)
    Язык : English
    Default : Нет
    Forced : Нет

    Текст #2
    Идентификатор : 6
    Формат : UTF-8
    Идентификатор кодека : S_TEXT/UTF8
    Идентификатор кодека/Информация : UTF-8 Plain Text
    Заголовок : English (SDH)
    Язык : English
    Default : Нет
    Forced : Нет

    Текст #3
    Идентификатор : 7
    Формат : UTF-8
    Идентификатор кодека : S_TEXT/UTF8
    Идентификатор кодека/Информация : UTF-8 Plain Text
    Заголовок : English (SDH-Colored)
    Язык : English
    Default : Нет
    Forced : Нет

    Текст #4
    Идентификатор : 8
    Формат : UTF-8
    Идентификатор кодека : S_TEXT/UTF8
    Идентификатор кодека/Информация : UTF-8 Plain Text
    Заголовок : French (Full)
    Язык : French
    Default : Нет
    Forced : Нет

    Текст #5
    Идентификатор : 9
    Формат : UTF-8
    Идентификатор кодека : S_TEXT/UTF8
    Идентификатор кодека/Информация : UTF-8 Plain Text
    Заголовок : Spanish (Full)
    Язык : Spanish
    Default : Нет
    Forced : Нет

    Меню
    00:00:00.000 : en:Chapter 00
    00:05:36.044 : en:Chapter 01
    00:10:44.185 : en:Chapter 02
    00:15:15.205 : en:Chapter 03
    00:20:42.282 : en:Chapter 04
    00:24:47.736 : en:Chapter 05
    00:29:20.842 : en:Chapter 06
    00:36:24.098 : en:Chapter 07
    00:40:56.370 : en:Chapter 08
    00:45:39.278 : en:Chapter 09
    00:52:17.050 : en:Chapter 10
    00:58:13.781 : en:Chapter 11
    01:05:49.987 : en:Chapter 12
    01:10:28.682 : en:Chapter 13
    01:14:35.387 : en:Chapter 14
    01:20:14.559 : en:Chapter 15
    01:24:46.915 : en:Chapter 16
    01:31:11.924 : en:Chapter 17
    01:38:23.647 : en:Chapter 18
    01:41:02.639 : en:Chapter 19
    Скриншоты для ознакомления

    Размер скачиваемого торрента: 2.18 GB (2343657994 Bytes)

    Два ствола / 2 Guns (2013) BDRip-AVC | Чистый звук торрент скачать бесплатно
    загрузка...
    Рейтинг →
     (голосов: 1, оценка 3/5, голосовать можно 1 раз )

    Другие торренты по теме:



      Комментарии (0):

      Информация

      Информация

        Посетители, находящиеся в группе Гости, не могут оставлять комментарии в данной новости.

        ↓ Меню



        ↓ Опрос

        А Вы добавили сайт в закладки?
        Да
        Не


        Top 10 за неделю (Фильмы)