.
Авторизация | Регистрация
Хочешь лучшие торренты? Добавь свой email!
Добавить
» » Ярмарка тщеславия / Vanity Fair (1998) DVDRip | P торрент скачать бесплатно




    Ярмарка тщеславия / Vanity Fair (1998) DVDRip | P торрент скачать бесплатно

    Опубликовал: Админ | Дата: 27-02-2015, 11:09 | Просмотров: 630



    Детально о кино
    Русское название: Ярмарка тщеславия
    Русское название в мировом прокате: Vanity Fair
    Создали в: 1998
    Категория жанра: драма, мелодрама
    Главный режиссер: Марк Манден
    Актеры: Наташа Литтл Фрэнсис Грей Дэвид Росс Филип Гленистер Мишель Дотрис Джанин Дувицкий Энтон Лессер Натаниель Паркер Джереми Свифт Том Уорд

    Сюжет фильма:
    Красивая, умная и обаятельная Бекки Шарп — бывшая гувернантка. Она непревзойденная искусительница и карьеристка. Бекки готова пойти на любые уловки и разбить несчетное количество мужских сердец, чтобы заполучить богатого и знатного мужа.

    Вся ее бурная и полная приключений жизнь посвящена одной цели — поискам влиятельного покровителя. А ее кроткая подруга Амелия преданно любит ветреного офицера Джорджа Осборна, хотя по ней тайно страдает его верный друг капитан Доббин. Смогут ли подруги пережить все превратности любви, уготованные им судьбой?



    Снималось в: Великобритания, США
    Киностудия: AE Television Networks, BBC
    Время просмотра: 05:05:00
    Перевод текста: Профессиональный (многоголосый, закадровый)

    Файл
    Кодек для видео: DivX / MP3
    Качество фильма: DVDRip
    Информация о видео: DivX, 640x480, ~1500 Кбит/сек, 25,000 кадр/сек
    Информация о звуке: MP3, 2 ch, 160 KBps

    Скриншоты для ознакомления
    MediaInfo
    Общее
    Полное имя : F:KINOvanity_fair_1998_vanity_fair_1998_part2.avi
    Формат : AVI
    Формат/Информация : Audio Video Interleave
    Размер файла : 1,78 Гбайт
    Продолжительность : 2 ч. 34 м.
    Общий поток : 1658 Кбит/сек
    Библиотека кодирования : VirtualDub build 28191/release

    Видео
    Идентификатор : 0
    Формат : MPEG-4 Visual
    Параметр BVOP формата : 1
    Параметр QPel формата : Нет
    Параметр GMC формата : Без точки перехода
    Параметр матрицы формата : Default (H.263)
    Режим смешивания : Сжатый битовый поток
    Идентификатор кодека : DX50
    Идентификатор кодека/Подсказка : DivX 5
    Продолжительность : 2 ч. 34 м.
    Битрейт : 1488 Кбит/сек
    Ширина : 640 пикс.
    Высота : 480 пикс.
    Соотношение сторон : 4:3
    Частота кадров : 25,000 кадр/сек
    Цветовое пространство : YUV
    Подвыборка цветности : 4:2:0
    Битовая глубина : 8 бит
    Тип развёртки : Прогрессивная
    Метод сжатия : С потерями
    Бит/(Пиксели*Кадры) : 0.194
    Размер потока : 1,60 Гбайт (90%)
    Библиотека кодирования : DivX 6.2.5 (UTC 2006-07)

    Аудио
    Идентификатор : 1
    Формат : MPEG Audio
    Версия формата : Version 1
    Профиль формата : Layer 3
    Идентификатор кодека : 55
    Идентификатор кодека/Подсказка : MP3
    Продолжительность : 2 ч. 33 м.
    Вид битрейта : Постоянный
    Битрейт : 160 Кбит/сек
    Каналы : 2 канала
    Частота : 48,0 КГц
    Метод сжатия : С потерями
    Задержка видео : 160 мс.
    Размер потока : 176 Мбайт (10%)
    Выравнивание : Разделение по промежуткам
    Продолжительность промежутка : 40 мс. (1,00 видеокадр)
    Время предзагрузки промежутка : 500 ms

    Размер скачиваемого торрента: 3.67 GB (3938454460 Bytes)

    Ярмарка тщеславия / Vanity Fair (1998) DVDRip | P торрент скачать бесплатно
    загрузка...
    Рейтинг →
     (голосов: 1, оценка 5/5, голосовать можно 1 раз )

    Другие торренты по теме:

  • Ярмарка тщеславия


    • Комментарии (0):

      Информация

      Информация

        Посетители, находящиеся в группе Гости, не могут оставлять комментарии в данной новости.

        ↓ Меню



        ↓ Опрос

        А Вы добавили сайт в закладки?
        Да
        Не


        Top 10 за месяц (Фильмы)