.
Авторизация | Регистрация
» » Клип / Klip (2012) BDRip-AVC 720p от HQRUS скачать через торрент бесплатно




    Клип / Klip (2012) BDRip-AVC 720p от HQRUS скачать через торрент бесплатно

    Опубликовал: Админ | Дата: 27-02-2015, 11:09 | Просмотров: 330



    Детально о кино
    Русское название: Клип
    Русское название в мировом прокате: Klip
    Создали в: 2012
    Категория жанра: Драма
    Главный режиссер: Майя Милош
    Актеры: Исидора Симионович, Вукасин Яснич, Зоран Максимович, Никола Драгутинович, Владимир Гвоиц, Соня Яничиц, Йово Максик, Катарина Пешич

    Сюжет фильма:
    Ясна — красивая девочка-подросток. Не желая примириться с жизнью в провинциальном сербском захолустье с замученной работой мамашей и постоянно больным отцом, она находится в конфликте со всеми, ведет себя дико, экспериментирует с сексом, наркотиками, и просто убивает время. Но постепенно, ее отчаянный протест помогает ей примириться с болезненной реальностью.

    Победитель Роттердамского кинофестиваля 2012 года.

    Скрытый текст

    General
    Unique ID : 235717130937408253977180547670121614381 (0xB15577D4991F970EB87F38A157638C2D)
    Complete name : G:AVC FILMSKlip.2012.BDRip-AVC.720p.2xRus.Serb.HQRUS.mkv
    Format : Matroska
    Format version : Version 4 / Version 2
    File size : 2.90 GiB
    Duration : 1h 38mn
    Overall bit rate : 4 217 Kbps
    Movie name :
    Encoded date : UTC 2013-11-11 06:21:02
    Writing application : mkvmerge v6.1.0 (;Old Devil;) built on Mar 4 2013 09:10:42
    Writing library : libebml v1.3.0 libmatroska v1.4.0
    Attachment : Yes

    Video
    ID : 1
    Format : AVC
    Format/Info : Advanced Video Codec
    Format profile : High@L4.1
    Format settings, CABAC : Yes
    Format settings, ReFrames : 9 frames
    Codec ID : V_MPEG4/ISO/AVC
    Duration : 1h 38mn
    Bit rate : 3 607 Kbps
    Width : 1 280 pixels
    Height : 608 pixels
    Display aspect ratio : 2.105
    Frame rate mode : Constant
    Frame rate : 25.000 fps
    Color space : YUV
    Chroma subsampling : 4:2:0
    Bit depth : 8 bits
    Scan type : Progressive
    Bits/(Pixel*Frame) : 0.185
    Stream size : 2.42 GiB (84%)
    Writing library : x264 core 130 r2273 b3065e6
    Encoding settings : cabac=1 / ref=9 / deblock=1:-2:-1 / analyse=0x3:0x133 / me=umh / subme=11 / psy=0 / mixed_ref=1 / me_range=32 / chroma_me=1 / trellis=2 / 8x8dct=1 / cqm=0 / deadzone=21,11 / fast_pskip=0 / chroma_qp_offset=0 / threads=6 / lookahead_threads=1 / sliced_threads=0 / nr=0 / decimate=1 / interlaced=0 / bluray_compat=0 / constrained_intra=0 / bframes=3 / b_pyramid=2 / b_adapt=2 / b_bias=0 / direct=3 / weightb=1 / open_gop=0 / weightp=2 / keyint=250 / keyint_min=25 / scenecut=40 / intra_refresh=0 / rc_lookahead=80 / rc=2pass / mbtree=1 / bitrate=3607 / ratetol=1.0 / qcomp=0.60 / qpmin=0 / qpmax=69 / qpstep=4 / cplxblur=20.0 / qblur=0.5 / ip_ratio=1.40 / aq=1:1.00
    Default : Yes
    Forced : No

    Audio #1
    ID : 2
    Format : AC-3
    Format/Info : Audio Coding 3
    Mode extension : CM (complete main)
    Format settings, Endianness : Big
    Codec ID : A_AC3
    Duration : 1h 38mn
    Bit rate mode : Constant
    Bit rate : 192 Kbps
    Channel count : 2 channels
    Channel positions : Front: L R
    Sampling rate : 48.0 KHz
    Bit depth : 16 bits
    Compression mode : Lossy
    Stream size : 135 MiB (5%)
    Title : AC3 2.0 @ 192 kbps - MVO, online movies
    Language : Russian
    Default : Yes
    Forced : No

    Audio #2
    ID : 3
    Format : AC-3
    Format/Info : Audio Coding 3
    Mode extension : CM (complete main)
    Format settings, Endianness : Big
    Codec ID : A_AC3
    Duration : 1h 38mn
    Bit rate mode : Constant
    Bit rate : 192 Kbps
    Channel count : 2 channels
    Channel positions : Front: L R
    Sampling rate : 48.0 KHz
    Bit depth : 16 bits
    Compression mode : Lossy
    Stream size : 135 MiB (5%)
    Title : AC3 2.0 @ 192 kbps - VO, den904
    Language : Russian
    Default : No
    Forced : No

    Audio #3
    ID : 4
    Format : AC-3
    Format/Info : Audio Coding 3
    Mode extension : CM (complete main)
    Format settings, Endianness : Big
    Codec ID : A_AC3
    Duration : 1h 38mn
    Bit rate mode : Constant
    Bit rate : 224 Kbps
    Channel count : 2 channels
    Channel positions : Front: L R
    Sampling rate : 48.0 KHz
    Bit depth : 16 bits
    Compression mode : Lossy
    Stream size : 158 MiB (5%)
    Title : AC3 2.0 @ 224 kbps - Original
    Language : Serbian
    Default : No
    Forced : No

    Text #1
    ID : 5
    Format : UTF-8
    Codec ID : S_TEXT/UTF8
    Codec ID/Info : UTF-8 Plain Text
    Title : Full Rus
    Language : Russian
    Default : No
    Forced : No

    Text #2
    ID : 6
    Format : UTF-8
    Codec ID : S_TEXT/UTF8
    Codec ID/Info : UTF-8 Plain Text
    Title : Full Eng
    Language : English
    Default : No
    Forced : No

    Text #3
    ID : 7
    Format : UTF-8
    Codec ID : S_TEXT/UTF8
    Codec ID/Info : UTF-8 Plain Text
    Title : Forced Ger
    Language : German
    Default : No
    Forced : No

    Text #4
    ID : 8
    Format : UTF-8
    Codec ID : S_TEXT/UTF8
    Codec ID/Info : UTF-8 Plain Text
    Title : Full Ger
    Language : German
    Default : No
    Forced : No

    Text #5
    ID : 9
    Format : UTF-8
    Codec ID : S_TEXT/UTF8
    Codec ID/Info : UTF-8 Plain Text
    Language : Russian
    Default : Yes
    Forced : No

    Menu
    00:00:00.000 : :Chapter 01
    00:09:59.680 : :Chapter 02
    00:21:39.440 : :Chapter 03
    00:29:13.839 : :Chapter 04
    00:39:32.239 : :Chapter 05
    00:48:45.360 : :Chapter 06
    01:00:05.320 : :Chapter 07
    01:09:38.599 : :Chapter 08
    01:18:27.279 : :Chapter 09
    01:27:23.839 : :Chapter 10






    Снималось в: Сербия
    Время просмотра: 01:38:28
    Перевод текста: Профессиональный (многоголосный)
    Любительский (двухголосный закадровый) - den904 DeadSno

    Файл
    Кодек для видео: H264
    Качество фильма: BDRip-AVC 720p
    Информация о видео: 1280x608, 25 fps, ~3607 Kbit/s
    Информация о звуке:
    Аудио 1: АС3, 48000 Hz, 2 канала, 192 kbit/s Профессиональный (многоголосный)
    Аудио 2: АС3, 48000 Hz, 2 канала, 192 kbit/s Любительский (двухголосный закадровый) - den904 DeadSno
    Аудио 3: АС3, 48000 Hz, 2 канала, 224 kbit/s Оригинал Serbian
    Субтитры: Русские, Английские, Немецкие


    Скриншоты для ознакомления



    Релиз подготовил: HQRUS
    Размер скачиваемого торрента: 2.90 GB (3114088614 Bytes)

    Клип / Klip (2012) BDRip-AVC 720p от HQRUS скачать через торрент бесплатно
    загрузка...
    Рейтинг →
     (голосов: 1, оценка 3/5, голосовать можно 1 раз )

    Другие торренты по теме:

  • Сборник клипов - Metal, Rock Vol.2 (2012) WEBRip 720p торрент скачать бесплатно
  • Сборник Клипов - Разное (1999-2012) SATRip торрент скачать бесплатно
  • Лучшие клипы / Slim Shady Place Video Yearmix (2011-2012) BDRip 720p торрент скачать бесплатно
  • Сборник клипов - Мегамикс / Philizz Video YearMix (2012) BDRip 720 торрент скачать бесплатно
  • Armada Music - Подборка клипов (2012) WEBRip 720p, 1080p торрент скачать бесплатно
  • Armada Music - Большая подборка клипов (2008-2012) WEBRip 720p-1080p торрент скачать бесплатно
  • Armada Music - Подборка клипов 2 (2008-2012) WEBRip 720p-1080p торрент скачать бесплатно
  • Fedde Le Grand - Подборка клипов (2008-2012) WEBRip 720p-1080p торрент скачать бесплатно


    • Комментарии (0):

      Информация

      Информация

        Посетители, находящиеся в группе Гости, не могут оставлять комментарии в данной новости.

        ↓ Меню



        ↓ Опрос

        А Вы добавили сайт в закладки?
        Да
        Не


        Top 10 за неделю (Фильмы)