.
Авторизация | Регистрация
» » Эпоха алчности / Bailout: The Age of Greed / Assault on Wall Street (2013) BDRemux 1080p | P, L1 скачать через торрент бесплатно




    Эпоха алчности / Bailout: The Age of Greed / Assault on Wall Street (2013) BDRemux 1080p | P, L1 скачать через торрент бесплатно

    Опубликовал: Админ | Дата: 27-02-2015, 11:09 | Просмотров: 275




    Детально о кино

    Русское название: Эпоха алчности
    Русское название в мировом прокате: Bailout: The Age of Greed
    Создали в: 2013
    Категория жанра: Триллер, драма
    Снималось в: Канада, Lynn Peak Productions
    Главный режиссер: Уве Болл
    Актеры: Доминик Пёрселл, Эрин Карплак, Эдвард Ферлонг, Джон Хёрд, Кит Дэвид, Майкл Паре, Локлин Манро, Тайрон Лейтсо, Майк Допуд, Барклай Хоуп


    Сюжет фильма: Это история обычного, среднестатистического жителя Нью-Йорка, с хорошей работой и счастливой семьей. После того, как наступает экономический кризис, он лишается работы и будучи в отчаянии он берет оружие и отправляется мстить за свою испорченную жизнь.






    Файл

    Качество фильма: Blu-Ray Remux (1080p)
    Информация о видео: MPEG-4 AVC, 20848 Кбит/с, 1920x1080, 23.976 кадр/с
    Информация о звуке: Русский (AC3, 6 ch, 384 Кбит/с), английский (AC3, 6 ch, 448 Кбит/с)
    Размер скачиваемого торрента: 15.35 ГБ
    Время просмотра: 01:38:55
    Перевод текста: Профессиональный многоголосый (лицензия), любительский одноголосый (den904), перевод - Janetta
    Субтитры: Русские, английские


    Инфо-файл

    Общее
    Уникальный идентификатор : 228795613445759905783893269143260230625 (0xAC206EABBC1569EE8A093A2B7253F3E1)
    Полное имя : C:ЗагрузкиAssault.on.Wall.Street.2013.BDRemux.mkv
    Формат : Matroska
    Версия формата : Version 2
    Размер файла : 15,4 Гбайт
    Продолжительность : 1 ч. 38 м.
    Режим общего битрейта : Переменный
    Общий поток : 22,2 Мбит/сек
    Название фильма : Эпоха алчности. 2013.
    Дата кодирования : UTC 2013-11-12 19:12:22
    Программа кодирования : mkvmerge v5.6.0 (;Kenya Kane;) built on May 27 2012 16:44:04
    Библиотека кодирования : libebml v1.2.3 libmatroska v1.3.0

    Видео
    Идентификатор : 1
    Формат : AVC
    Формат/Информация : Advanced Video Codec
    Профиль формата : High@L4.1
    Параметр CABAC формата : Да
    Параметр ReFrames формата : 4 кадра
    Идентификатор кодека : V_MPEG4/ISO/AVC
    Продолжительность : 1 ч. 38 м.
    Вид битрейта : Переменный
    Битрейт : 20,6 Мбит/сек
    Максимальный битрейт : 35,0 Мбит/сек
    Ширина : 1920 пикселей
    Высота : 1080 пикселей
    Соотношение сторон : 16:9
    Режим частоты кадров : Постоянный
    Частота кадров : 23,976 кадра/сек
    Стандарт вещания : NTSC
    Цветовое пространство : YUV
    Субдискретизация насыщенности : 4:2:0
    Битовая глубина : 8 бит
    Тип развёртки : Прогрессивная
    Бит/(Пиксели*Кадры) : 0.414
    Размер потока : 14,2 Гбайт (93%)
    Язык : English
    Default : Да
    Forced : Нет
    Основные цвета : BT.709
    Характеристики трансфера : BT.709
    Коэффициенты матрицы : BT.709

    Аудио #1
    Идентификатор : 2
    Формат : AC-3
    Формат/Информация : Audio Coding 3
    Расширение режима : CM (complete main)
    Параметр Endianness формата : Big
    Идентификатор кодека : A_AC3
    Продолжительность : 1 ч. 38 м.
    Вид битрейта : Постоянный
    Битрейт : 384 Кбит/сек
    Каналы : 6 каналов
    Расположение каналов : Front: L C R, Side: L R, LFE
    Частота : 48,0 КГц
    Битовая глубина : 16 бит
    Метод сжатия : С потерями
    Размер потока : 272 Мбайт (2%)
    Заголовок : Профессиональный многоголосый (лицензия)
    Язык : Russian
    Default : Да
    Forced : Да

    Аудио #2
    Идентификатор : 3
    Формат : AC-3
    Формат/Информация : Audio Coding 3
    Расширение режима : CM (complete main)
    Параметр Endianness формата : Big
    Идентификатор кодека : A_AC3
    Продолжительность : 1 ч. 38 м.
    Вид битрейта : Постоянный
    Битрейт : 384 Кбит/сек
    Каналы : 6 каналов
    Расположение каналов : Front: L C R, Side: L R, LFE
    Частота : 48,0 КГц
    Битовая глубина : 16 бит
    Метод сжатия : С потерями
    Размер потока : 272 Мбайт (2%)
    Заголовок : Любительский одноголосый (den904)
    Язык : Russian
    Default : Нет
    Forced : Нет

    Аудио #3
    Идентификатор : 4
    Формат : AC-3
    Формат/Информация : Audio Coding 3
    Расширение режима : CM (complete main)
    Параметр Endianness формата : Big
    Идентификатор кодека : A_AC3
    Продолжительность : 1 ч. 38 м.
    Вид битрейта : Постоянный
    Битрейт : 448 Кбит/сек
    Каналы : 6 каналов
    Расположение каналов : Front: L C R, Side: L R, LFE
    Частота : 48,0 КГц
    Битовая глубина : 16 бит
    Метод сжатия : С потерями
    Размер потока : 317 Мбайт (2%)
    Язык : English
    Default : Нет
    Forced : Нет

    Текст #1
    Идентификатор : 5
    Формат : UTF-8
    Идентификатор кодека : S_TEXT/UTF8
    Идентификатор кодека/Информация : UTF-8 Plain Text
    Язык : Russian
    Default : Нет
    Forced : Нет

    Текст #2
    Идентификатор : 6
    Формат : UTF-8
    Идентификатор кодека : S_TEXT/UTF8
    Идентификатор кодека/Информация : UTF-8 Plain Text
    Язык : English
    Default : Нет
    Forced : Нет

    Меню
    00:00:00.000 : en:00:00:00.000
    00:07:42.629 : en:00:07:42.629
    00:12:35.546 : en:00:12:35.546
    00:19:09.231 : en:00:19:09.231
    00:25:09.842 : en:00:25:09.842
    00:32:47.048 : en:00:32:47.048
    00:38:35.438 : en:00:38:35.438
    00:44:55.484 : en:00:44:55.484
    00:51:40.639 : en:00:51:40.639
    00:58:36.054 : en:00:58:36.054
    01:04:29.032 : en:01:04:29.032
    01:12:43.859 : en:01:12:43.859
    01:17:41.699 : en:01:17:41.699
    01:24:58.802 : en:01:24:58.802
    01:29:15.892 : en:01:29:15.892
    01:36:39.627 : en:01:36:39.627



    Скриншоты для ознакомления






    Релиз подготовил:
    Залил: ollan
    Размер скачиваемого торрента: 15.35 GB (16483421795 Bytes)

    Эпоха алчности / Bailout: The Age of Greed / Assault on Wall Street (2013) BDRemux 1080p | P, L1 скачать через торрент бесплатно
    загрузка...
    Рейтинг →
     (голосов: 1, оценка 5/5, голосовать можно 1 раз )

    Другие торренты по теме:

  • Эпоха алчности / Bailout: The Age of Greed (2013) WEB-DLRip 720p | L1 торрент скачать бесплатно
  • Эпоха алчности / Нападение на Уолл-стрит / Assault on Wall Street (2013) BDRip 720p от leonardo 59 Scarabey | L1 торрент скачать бесплатно
  • Эпоха алчности / Bailout: The Age of Greed (2013) BDRip 720p | Р скачать через торрент бесплатно
  • Эпоха алчности / Bailout: The Age of Greed (2013) HDRip от INTERCINEMA | P скачать через торрент бесплатно
  • Нападение на Уолл-стрит / Эпоха алчности / Assault on Wall Street (2013) HDRip торрент скачать бесплатно
  • Нападение на Уолл-стрит / Эпоха алчности / Assault on Wall Street (2013) HDRip от Smart-Tracker | КПК скачать через торрент бесплатно
  • Нападение на Уолл-стрит / Эпоха алчности / Bailout: The Age of Greed / Assault on Wall Street (2013) Blu-Ray 1080p | P торрент скачать бесплатно
  • Нападение на Уолл-стрит / Эпоха алчности / Bailout: The Age of Greed / Assault on Wall Street (2013) BDRip от Rulya74 | P, L1 торрент скачать бесплатно


    • Комментарии (0):

      Информация

      Информация

        Посетители, находящиеся в группе Гости, не могут оставлять комментарии в данной новости.

        ↓ Меню



        ↓ Опрос

        А Вы добавили сайт в закладки?
        Да
        Не


        Top 10 за неделю (Фильмы)