.
Авторизация | Регистрация
Хочешь лучшие торренты? Добавь свой email!
Добавить
» » Имоджен / Girl Most Likely (2012) DVDRip | P | лицензия торрент скачать бесплатно




    Имоджен / Girl Most Likely (2012) DVDRip | P | лицензия торрент скачать бесплатно

    Опубликовал: Админ | Дата: 27-02-2015, 11:09 | Просмотров: 487

    She has a lot to live up to. And a few things to live down



    Снималось в: США / 10th Hole Productions, Ambush Entertainment...
    Категория жанра: комедия
    Создали в: 2012
    Время просмотра: 01:38:54

    Перевод текста: Профессиональный (многоголосый, закадровый)
    Субтитры подготовлены:нет
    Оригинальная аудиодорожка: нет

    Главный режиссер: Шари Спрингер Берман / Shari Springer Berman, Роберт Пульчини / Robert Pulcini

    Актеры: Кристен Уиг, Аннетт Бенинг, Мэтт Диллон, Даррен Крисс, Кристофер Фицджералд, Джун Рафаэль, Наташа Лионн, Боб Бэлабан, Сидни Лукас, Джимми Палумбо...

    Сюжет: Это история успешной нью-йоркской писательницы, которая изображает попытку самоубийства для того, чтобы вернуть экс-бойфренда.



    Качество фильма: DVDRip / DVD5 R5
    Тип видео: AVI

    Информация о видео: 720x400 (16:9), 25.000 fps, XVID ~1716 kbps avg, 0.238 bit/pixel
    Информация о звуке: Русский 48 kHz, AC3, 6 ch, 384.00 kbps Constant

    Раздача от:
    MediaInfo

    Общее
    Полное имя : Imodjen.2012.P.DVDRip_New-Team_by_avproh.avi
    Формат : AVI
    Формат/Информация : Audio Video Interleave
    Размер файла : 1,46 Гбайт
    Продолжительность : 1 ч. 38 м.
    Общий поток : 2109 Кбит/сек
    Программа кодирования : VirtualDubMod 1.5.10.3 | www.virtualdub-fr.org || (build 2550/release)
    Библиотека кодирования : VirtualDubMod build 2550/release

    Видео
    Идентификатор : 0
    Формат : MPEG-4 Visual
    Профиль формата : Advanced Simple@L5
    Параметр BVOP формата : 1
    Параметр QPel формата : Нет
    Параметр GMC формата : Без точки перехода
    Параметр матрицы формата : Выборочная
    Идентификатор кодека : XVID
    Идентификатор кодека/Подсказка : XviD
    Продолжительность : 1 ч. 38 м.
    Битрейт : 1716 Кбит/сек
    Ширина : 720 пикселей
    Высота : 400 пикселей
    Соотношение сторон : 16:9
    Частота кадров : 25,000 кадров/сек
    Цветовое пространство : YUV
    Субдискретизация насыщенности : 4:2:0
    Битовая глубина : 8 бит
    Тип развёртки : Прогрессивная
    Метод сжатия : С потерями
    Бит/(Пиксели*Кадры) : 0.238
    Размер потока : 1,19 Гбайт (81%)
    Библиотека кодирования : XviD 73

    Аудио
    Идентификатор : 1
    Формат : AC-3
    Формат/Информация : Audio Coding 3
    Расширение режима : CM (complete main)
    Параметр Endianness формата : Big
    Идентификатор кодека : 2000
    Продолжительность : 1 ч. 38 м.
    Вид битрейта : Постоянный
    Битрейт : 384 Кбит/сек
    Каналы : 6 каналов
    Расположение каналов : Front: L C R, Side: L R, LFE
    Частота : 48,0 КГц
    Битовая глубина : 16 бит
    Метод сжатия : С потерями
    Размер потока : 272 Мбайт (18%)
    Выравнивание : Разделение по промежуткам
    Продолжительность промежутка : 40 мс. (1,00 видеокадр)
    Время предзагрузки промежутка : 500 мс.

    Скриншоты для ознакомления:



    Залил: avproh
    Размер скачиваемого торрента: 1.46 GB (1564563456 Bytes)

    Имоджен / Girl Most Likely (2012) DVDRip | P | лицензия торрент скачать бесплатно
    загрузка...
    Рейтинг →
     (голосов: 1, оценка 4/5, голосовать можно 1 раз )

    Другие торренты по теме:

  • Имоджен Маккартери / Imogene McCarthery (2010) DVDRip от Brazzass | Sub
  • Имоджен / Girl Most Likely (2012) WEB-DLRip | P
  • Имоджен / Girl Most Likely (2012) DVDRip-AVC от New-Team | P | лицензия скачать через торрент бесплатно
  • Имоджен / Girl Most Likely (2012) BDRip-AVC от HELLYWOOD | Лицензия скачать через торрент бесплатно
  • Имоджен / Girl Most Likely (2012) BDRip 720p от LEONARDO and Scarabey | Лицензия скачать через торрент бесплатно
  • Имоджен / Girl Most Likely (2012) BDRip | Лицензия
  • Имоджен / Girl Most Likely (2012) Blu-ray 1080p от NovaLan


    • Комментарии (0):

      Информация

      Информация

        Посетители, находящиеся в группе Гости, не могут оставлять комментарии в данной новости.

        ↓ Меню



        ↓ Опрос

        А Вы добавили сайт в закладки?
        Да
        Не


        Top 10 за месяц (Фильмы)