.
Авторизация | Регистрация
» » Два ствола / 2 Guns (2013) BDRip-AVC от ed_rez | Чистый звук торрент скачать бесплатно




    Два ствола / 2 Guns (2013) BDRip-AVC от ed_rez | Чистый звук торрент скачать бесплатно

    Опубликовал: Админ | Дата: 27-02-2015, 11:09 | Просмотров: 271



    Снималось в: США
    Категория жанра: боевик, триллер, драма, комедия, криминал
    Создали в: 2013
    Время просмотра: 01:49:15

    Перевод текста: Профессиональный (дублированный) Чистый звук
    Субтитры подготовлены: английские
    Оригинальная аудиодорожка: английская

    Главный режиссер: Бальтасар Кормакур / Baltasar Korm?kur
    Актеры: Дензел Вашингтон, Марк Уолберг, Пола Пэттон, Билл Пэкстон, Фред Уорд, Джеймс Марсден, Роберт Джон Бёрк, Фред Уорд, Патрик Фишлер, Лаки Джонсон...

    Сюжет: Это история двух грабителей, которые на самом деле не те, кем кажутся. Один из них — агент из управления по борьбе с наркотиками, а другой — тайный агент разведки ВМС. Сами того не желая, они занимаются расследованием дел друг друга, а также воруют деньги у мафии. Через некоторое время героям придется украсть 50 миллионов долларов у ЦРУ.



    Качество фильма видео: BDRip-AVC Рип с 2 Guns 2013 BluRay REMUX 1080p AVC DTS-HD MA5.1-CHD
    Тип видео видео: MKV
    Информация о видео: х264, 1152х480 (2.40:1), 23.976 fps, 2028 Кbps, 0.153 bit/pixel
    Информация о звуке: 48 kHz, AC3 Dolby Digital, 2/0 (L,R) ch, ~224 kbps rus
    Информация о звуке 2: 48 kHz, AC3 Dolby Digital, 3/2 (L,C,R,l,r) LFE ch, ~384 kbps eng

    Сравнение
    http://tracker.rutor.org/torrent/316162/dva-stvola_2-guns-2013-bdrip-avc-chistyj-zvuk
    http://screenshotcomparison.com/comparison/48763/picture:1
    x264@log
    x264 info: frame I:1221 Avg QP:18.44 size: 85849
    x264 info: frame P:34515 Avg QP:22.94 size: 22300
    x264 info: frame B:121434 Avg QP:23.92 size: 6888
    x264 info: consecutive B-frames: 2.6% 3.1% 11.9% 13.6% 15.7% 37.3% 6.4% 2.8% 1.8% 1.2% 1.3% 0.7% 0.8% 0.5% 0.2% 0.3%
    Mediainfo
    Complete name : Dva.stv0la.2013.x264.BDRip-ed_rez.mkv
    Format : Matroska
    Format version : Version 2
    File size : 2.06 GiB
    Duration : 1h 49mn
    Overall bit rate : 2 698 Kbps
    Movie name : 2 Guns (2013) encoded by ed_rez
    Encoded date : UTC 2013-11-12 21:17:30
    Writing application : mkvmerge v6.4.1 (;Omega Point;) built on Sep 16 2013 22:05:10
    Writing library : libebml v1.3.0 libmatroska v1.4.1

    Video
    ID : 1
    Format : AVC
    Format/Info : Advanced Video Codec
    Format profile : High@L4.1
    Format settings, CABAC : Yes
    Format settings, ReFrames : 15 frames
    Codec ID : V_MPEG4/ISO/AVC
    Duration : 1h 49mn
    Bit rate : 2 090 Kbps
    Width : 1 152 pixels
    Height : 480 pixels
    Display aspect ratio : 2.40:1
    Frame rate mode : Constant
    Frame rate : 23.976 fps
    Color space : YUV
    Chroma subsampling : 4:2:0
    Bit depth : 8 bits
    Scan type : Progressive
    Bits/(Pixel*Frame) : 0.158
    Stream size : 1.55 GiB (75%)
    Title : 2 Guns (2013)
    Writing library : x264 core 133 r2334 a3ac64b
    Encoding settings : cabac=1 / ref=15 / deblock=1:-2:-1 / analyse=0x3:0x113 / me=umh / subme=10 / psy=1 / psy_rd=1.05:0.05 / mixed_ref=1 / me_range=32 / chroma_me=1 / trellis=2 / 8x8dct=1 / cqm=0 / deadzone=21,11 / fast_pskip=1 / chroma_qp_offset=-3 / threads=12 / lookahead_threads=3 / sliced_threads=0 / nr=0 / decimate=0 / interlaced=0 / bluray_compat=0 / constrained_intra=0 / bframes=15 / b_pyramid=2 / b_adapt=2 / b_bias=0 / direct=3 / weightb=1 / open_gop=0 / weightp=2 / keyint=250 / keyint_min=23 / scenecut=40 / intra_refresh=0 / rc_lookahead=80 / rc=2pass / mbtree=0 / bitrate=2090 / ratetol=1.0 / qcomp=0.70 / qpmin=0 / qpmax=69 / qpstep=4 / cplxblur=20.0 / qblur=0.5 / vbv_maxrate=22000 / vbv_bufsize=24000 / nal_hrd=none / ip_ratio=1.40 / pb_ratio=1.30 / aq=2:1.00 / zones=145392,157171,q=35
    Language : English
    Default : Yes
    Forced : No
    Color primaries : BT.709
    Transfer characteristics : BT.709
    Matrix coefficients : BT.709

    Audio #1
    ID : 2
    Format : AC-3
    Format/Info : Audio Coding 3
    Mode extension : CM (complete main)
    Format settings, Endianness : Big
    Codec ID : A_AC3
    Duration : 1h 49mn
    Bit rate mode : Constant
    Bit rate : 224 Kbps
    Channel count : 2 channels
    Channel positions : Front: L R
    Sampling rate : 48.0 KHz
    Bit depth : 16 bits
    Compression mode : Lossy
    Stream size : 175 MiB (8%)
    Title : DUB AC3, 2 ch, 224 Kbps
    Language : Russian
    Default : Yes
    Forced : No

    Audio #2
    ID : 3
    Format : AC-3
    Format/Info : Audio Coding 3
    Mode extension : CM (complete main)
    Format settings, Endianness : Big
    Codec ID : A_AC3
    Duration : 1h 49mn
    Bit rate mode : Constant
    Bit rate : 384 Kbps
    Channel count : 6 channels
    Channel positions : Front: L C R, Side: L R, LFE
    Sampling rate : 48.0 KHz
    Bit depth : 16 bits
    Compression mode : Lossy
    Stream size : 300 MiB (14%)
    Title : AC3, 5 ch, 384 Kbps
    Language : English
    Default : No
    Forced : No

    Text
    ID : 4
    Format : UTF-8
    Codec ID : S_TEXT/UTF8
    Codec ID/Info : UTF-8 Plain Text
    Default : Yes
    Forced : No
    Скриншоты для ознакомления

    Размер скачиваемого торрента: 2.06 GB (2210649454 Bytes)

    Два ствола / 2 Guns (2013) BDRip-AVC от ed_rez | Чистый звук торрент скачать бесплатно
    загрузка...
    Рейтинг →
     (голосов: 1, оценка 4/5, голосовать можно 1 раз )

    Другие торренты по теме:

  • OST - Карты, деньги, два ствола / Lock, Stock and Two Smoking Barrels (1998) MP3 торрент скачать бесплатно
  • Карты, деньги, два ствола / Lock, Stock and Two Smoking Barrels (1998) BDRip 1080p от NoLimits-Team торрент скачать бесплатно
  • Карты, деньги, два ствола / Lock, Stock and Two Smoking Barrels (1998) BDRip-AVC от FireBit-Films NoLimits-Team торрент скачать бесплатно
  • Два ствола / 2 Guns (2013) CAMRip | D торрент скачать бесплатно
  • Два ствола / 2 Guns (2013) CAMRip *PROPER* от INTERCINEMA торрент скачать бесплатно
  • Два ствола / 2 Guns (2013) WEBRip | Звук с TS торрент скачать бесплатно
  • Два ствола / 2 Guns (2013) WEB-DL 720p | Звук с TS торрент скачать бесплатно
  • Два ствола / 2 Guns (2013) WEB-DLRip | Звук с TS торрент скачать бесплатно


    • Комментарии (0):

      Информация

      Информация

        Посетители, находящиеся в группе Гости, не могут оставлять комментарии в данной новости.

        ↓ Меню



        ↓ Опрос

        А Вы добавили сайт в закладки?
        Да
        Не


        Top 10 за неделю (Фильмы)