.
Авторизация | Регистрация
Хочешь лучшие торренты? Добавь свой email!
Добавить
» » Парни что надо / The Right Stuff (1983) BDRip от MediaClub | P2 скачать через торрент бесплатно




    Парни что надо / The Right Stuff (1983) BDRip от MediaClub | P2 скачать через торрент бесплатно

    Опубликовал: Админ | Дата: 27-02-2015, 11:09 | Просмотров: 234



    Детально о кино
    Русское название: Парни что надо
    Русское название в мировом прокате: The Right Stuff
    Создали в: 1983
    Категория жанра: Фантастика, драма, приключения, история
    Главный режиссер: Филип Кауфман
    Актеры: Сэм Шепард, Скотт Гленн, Эд Харрис, Дэннис Куэйд, Фред Уорд, Барбара Хёрши, Ким Стэнли, Вероника Картрайт, Памела Рид, Скотт Полин, Чарльз Фрэнк, Лэнс Хенриксен, Дональд Моффет, Левон Хельм, Мэри Джо Дешанель, Скотт Уилсон, Кэти Бэйкер, Мики Крокер, Сьюзэн Касэ, Митти Смит, Ройал Дэно, Дэвид Кленнон, Джим Хейни, Джефф Голдблюм, Гарри Ширер, Скотт Бич, Джейн Дорнакер, Энтони Муноз, Джон П. Райан, Дэррил Энрикес

    Сюжет фильма:
    Экранизация бестселлера Тома Вулфа. 1953 год. Карибское море… Реактивный самолет взлетает с борта авианосца, он просто исчезает в небе. Приборы фиксируют: он перешел границу скорости звука… Эта картина — фрагментарная история американской астронавтики с 1947 по 1963 год, когда после долгих и трагических испытаний, американцы наконец вышли в космос.



    Снималось в: США / The Ladd Company, Colossal Pictures, USFX, Warner Bros.
    Время просмотра: 03:12:44
    Перевод текста: Профессиональный двухголосый

    Файл
    Кодек для видео: XviD
    Качество фильма: BDRip
    Информация о видео: XviD, 1954 Кбит/с, 720x400
    Информация о звуке: Русский (AC3, 2 ch, 192 Кбит/с)

    Семпл

    MI
    Format : AVI
    Format/Info : Audio Video Interleave
    Format profile : OpenDML
    File size : 2.91 GiB
    Duration : 3h 12mn
    Overall bit rate : 2 159 Kbps
    Movie name : The.Right.Stuff.1983.XviD.BDRip.-MediaClub
    Director : -=MediaClub - Odessit=-
    Writing application : VirtualDubMod 1.5.10.3 (build 2550/release)
    Writing library : VirtualDubMod build 2550/release

    Video
    ID : 0
    Format : MPEG-4 Visual
    Format profile : Advanced Simple@L5
    Format settings, BVOP : 1
    Format settings, QPel : No
    Format settings, GMC : No warppoints
    Format settings, Matrix : Custom
    Codec ID : XVID
    Codec ID/Hint : XviD
    Duration : 3h 12mn
    Bit rate : 1 956 Kbps
    Width : 720 pixels
    Height : 400 pixels
    Display aspect ratio : 16:9
    Frame rate : 23.976 fps
    Color space : YUV
    Chroma subsampling : 4:2:0
    Bit depth : 8 bits
    Scan type : Progressive
    Compression mode : Lossy
    Bits/(Pixel*Frame) : 0.283
    Stream size : 2.63 GiB (91%)
    Writing library : XviD 73

    Audio
    ID : 1
    Format : AC-3
    Format/Info : Audio Coding 3
    Mode extension : CM (complete main)
    Codec ID : 2000
    Duration : 3h 12mn
    Bit rate mode : Constant
    Bit rate : 192 Kbps
    Channel(s) : 2 channels
    Channel positions : Front: L R
    Sampling rate : 48.0 KHz
    Bit depth : 16 bits
    Compression mode : Lossy
    Stream size : 265 MiB (9%)
    Alignment : Split accross interleaves
    Interleave, duration : 42 ms (1.00 video frame)
    Interleave, preload duration : 500 ms


    Скриншоты для ознакомления



    Релиз подготовил: |
    Размер скачиваемого торрента: 2.91 GB (3120459776 Bytes)

    Парни что надо / The Right Stuff (1983) BDRip от MediaClub | P2 скачать через торрент бесплатно
    загрузка...
    Рейтинг →
     (голосов: 1, оценка 5/5, голосовать можно 1 раз )

    Другие торренты по теме:

  • Парни что надо / The Right Stuff (1983) BDRemux 1080p от MediaClub | P2
  • Парни что надо / The Right Stuff (1983) BDRip-AVC от MediaClub | P2 скачать через торрент бесплатно
  • Парни что надо / The Right Stuff (1983) BDRip от HQCLUB
  • За что готовы драться парни (2011) SATRip


    • Комментарии (0):

      Информация

      Информация

        Посетители, находящиеся в группе Гости, не могут оставлять комментарии в данной новости.

        ↓ Меню



        ↓ Опрос

        А Вы добавили сайт в закладки?
        Да
        Не


        Top 10 за месяц (Фильмы)