.
Авторизация | Регистрация
Хочешь лучшие торренты? Добавь свой email!
Добавить
» » Терминал / The Terminal (2004) WEB-DL 720p от BuR | R.G. FireBit-Films торрент скачать бесплатно




    Терминал / The Terminal (2004) WEB-DL 720p от BuR | R.G. FireBit-Films торрент скачать бесплатно

    Опубликовал: Админ | Дата: 27-02-2015, 11:09 | Просмотров: 364



    Детально о кино
    Русское название: Терминал
    Русское название в мировом прокате: The Terminal
    Создали в: 2004
    Категория жанра: драма, комедия
    Главный режиссер: Стивен Спилберг
    Актеры: Том Хэнкс, Кэтрин Зета-Джонс, Стенли Туччи, Чи МакБрайд, Диего Луна, Бэрри Шебака Хенли, Кумар Паллана, Зои Салдана, Эдди Джонс, Джуд Чикколелла

    Сюжет фильма: Фильм рассказывает историю Виктора Наворски, отправившегося в Нью-Йорк из Восточной Европы. Пока Виктор летел в самолете, на его родине произошел государственный переворот. Оказавшись в международном аэропорту имени Джона Кеннеди с паспортом ниоткуда, он не имеет права въехать в Соединенные Штаты и должен коротать свои дни и ночи в гостинице аэропорта, пока война в его родной стране не закончится.
    Тянутся недели и месяцы, и Виктор обнаруживает, что небольшой мирок терминала может быть наполнен абсурдом, щедростью, амбициями, развлечениями, желанием сохранить свой статус, интуитивной прозорливостью и даже любовью к очаровательной стюардессе Амелии. Виктору удается завоевать симпатии всех, кроме одного человека — чиновника аэропорта Фрэнка Диксона, который считает его бюрократической ошибкой, проблемой, которую он не может контролировать, но от которой жаждет избавиться.



    Снималось в: США
    Время просмотра: 02:08:43
    Перевод текста: Профессиональный (полное дублирование)

    Файл
    Качество фильма: WEB-DL 720p
    Тип видео: MKV
    Информация о видео: MPEG4/AVC, 1280x718 (16:9), 23.976 кадра/сек, 4092 Кбит/сек, 0.186 Бит/(Пиксели*Кадры)
    Информация о звуке 1: 48 kHz, AC3 Dolby Digital, 3/2 (L,C,R,l,r) LFE ch, 384 Кбит/сек |Дубляж|
    Информация о звуке 2: 48 kHz, AC3 Dolby Digital, 3/2 (L,C,R,l,r) LFE ch, 384 Кбит/сек |ENG|
    Субтитры: Английские (.srt)
    Навигация по главам: Есть

    MediaInfo:
    Общее
    Уникальный идентификатор : 223099667129144971159949517310588759757 (0xA7D76ED5DB26B5E090667D8D2DB62ECD)
    Полное имя : The Terminal. (2004) WEB-DL 720p.mkv
    Формат : Matroska
    Версия формата : Version 2
    Размер файла : 4,46 Гбайт
    Продолжительность : 2 ч. 8 м.
    Общий поток : 4958 Кбит/сек
    Название фильма : The Terminal (2004)
    Дата кодирования : UTC 2013-11-15 12:43:50
    Программа кодирования : mkvmerge v5.8.0 (;No Sleep / Pillow;) built on Sep 2 2012 15:37:04
    Библиотека кодирования : libebml v1.2.3 libmatroska v1.3.0

    Видео
    Идентификатор : 1
    Формат : AVC
    Формат/Информация : Advanced Video Codec
    Профиль формата : High@L3.1
    Параметр CABAC формата : Нет
    Параметр ReFrames формата : 2 кадра
    Параметр GOP формата : N=1
    Идентификатор кодека : V_MPEG4/ISO/AVC
    Продолжительность : 2 ч. 8 м.
    Битрейт : 4092 Кбит/сек
    Ширина : 1280 пикселей
    Высота : 718 пикселей
    Соотношение сторон : 16:9
    Режим частоты кадров : Постоянный
    Частота кадров : 23,976 кадра/сек
    Цветовое пространство : YUV
    Субдискретизация насыщенности : 4:2:0
    Битовая глубина : 8 бит
    Тип развёртки : Прогрессивная
    Бит/(Пиксели*Кадры) : 0.186
    Размер потока : 3,68 Гбайт (83%)
    Язык : English
    Default : Да
    Forced : Нет
    Основные цвета : BT.709
    Характеристики трансфера : BT.709
    Коэффициенты матрицы : BT.709

    Аудио #1
    Идентификатор : 2
    Формат : AC-3
    Формат/Информация : Audio Coding 3
    Расширение режима : CM (complete main)
    Параметр Endianness формата : Big
    Идентификатор кодека : A_AC3
    Продолжительность : 2 ч. 8 м.
    Вид битрейта : Постоянный
    Битрейт : 384 Кбит/сек
    Каналы : 6 каналов
    Расположение каналов : Front: L C R, Side: L R, LFE
    Частота : 48,0 КГц
    Битовая глубина : 16 бит
    Метод сжатия : С потерями
    Размер потока : 354 Мбайт (8%)
    Заголовок : RUS
    Язык : Russian
    Default : Да
    Forced : Нет

    Аудио #2
    Идентификатор : 3
    Формат : AC-3
    Формат/Информация : Audio Coding 3
    Расширение режима : CM (complete main)
    Параметр Endianness формата : Big
    Идентификатор кодека : A_AC3
    Продолжительность : 2 ч. 8 м.
    Вид битрейта : Постоянный
    Битрейт : 384 Кбит/сек
    Каналы : 6 каналов
    Расположение каналов : Front: L C R, Side: L R, LFE
    Частота : 48,0 КГц
    Битовая глубина : 16 бит
    Метод сжатия : С потерями
    Размер потока : 354 Мбайт (8%)
    Заголовок : ENG
    Язык : English
    Default : Нет
    Forced : Нет

    Текст
    Идентификатор : 4
    Формат : UTF-8
    Идентификатор кодека : S_TEXT/UTF8
    Идентификатор кодека/Информация : UTF-8 Plain Text
    Заголовок : SRT
    Язык : English
    Default : Нет
    Forced : Нет

    Меню
    00:00:00.000 : en:Main Title
    00:03:15.000 : en:Crack In The System
    00:09:00.000 : en:America Closed
    00:14:02.000 : en:Do You Have An Appointment?
    00:15:28.000 : en:Gate 67
    00:18:35.000 : en:Acting Field Commissioner
    00:20:26.000 : en:Unacceptable
    00:23:05.000 : en:Unhooking The Fish
    00:27:41.000 : en:Sensible Heels
    00:29:42.000 : en:The Carts
    00:32:29.000 : en:50/50
    00:35:06.000 : en:You Feed Me, I;ll Feed You
    00:41:22.000 : en:Crowded
    00:47:22.000 : en:Observations
    00:52:10.000 : en:The Position Has Been Filled
    00:57:34.000 : en:After Hours
    01:00:37.000 : en:Rewriting History
    01:06:00.000 : en:The Inspection
    01:16:05.000 : en:If I Stay, You Stay
    01:18:19.000 : en:The Dinner Appointment
    01:29:06.000 : en:Tokens Of Love
    01:32:55.000 : en:Why Viktor Navorski?
    01:35:16.000 : en:Keeping Promises
    01:42:00.000 : en:The War Is Over
    01:49:00.000 : en:Family
    01:51:01.000 : en:Viktor;s Leaving!
    01:57:52.000 : en:161 Lexington
    02:01:34.000 : en:End Credits

    Скриншоты для ознакомления:


    Релиз подготовил: Релиз группа:
    Размер скачиваемого торрента: 4.46 GB (4787107951 Bytes)

    Терминал / The Terminal (2004) WEB-DL 720p от BuR | R.G. FireBit-Films торрент скачать бесплатно
    загрузка...
    Рейтинг →
     (голосов: 1, оценка 3/5, голосовать можно 1 раз )

    Другие торренты по теме:

  • Терминал / The Terminal (2004) WEB-DLRip от Youtracker | D
  • Терминал (2010) DVB
  • Бумбокс - Терминал Б (2013) МР3
  • Терминал / The Terminal (2004) HDRip-AVC от BuR | R.G. FireBit-Films
  • Терминал / The Terminal (2004) WEB-DLRip | P2
  • Терминал / The Terminal (2004) HDTVRip 720p от MediaClub | D, P, P2, A
  • Терминал / The Terminal (2004) BDRip от HQCLUB скачать через торрент бесплатно
  • Терминал / The Terminal (2004) BDRip 1080p скачать через торрент бесплатно


    • Комментарии (0):

      Информация

      Информация

        Посетители, находящиеся в группе Гости, не могут оставлять комментарии в данной новости.

        ↓ Меню



        ↓ Опрос

        А Вы добавили сайт в закладки?
        Да
        Не


        Top 10 за месяц (Фильмы)