.
Авторизация | Регистрация
» » Паранойя / Paranoia (2013) HDRip от BitTracker | BaibaKo торрент скачать бесплатно




    Паранойя / Paranoia (2013) HDRip от BitTracker | BaibaKo торрент скачать бесплатно

    Опубликовал: Админ | Дата: 27-02-2015, 11:09 | Просмотров: 319



    Детально о кино
    Русское название: Паранойя
    Русское название в мировом прокате: Paranoia
    Создали в: 2013
    Категория жанра: триллер, драма
    Главный режиссер: Роберт Лукетич / Robert Luketic
    Актеры: Лиам Хемсворт, Гари Олдман, Эмбер Хёрд, Харрисон Форд, Лукас Тилл, Эмбет Дэвидц, Джулиан МакМэхон, Джош Холлоуэй, Ричард Дрейфусс, Анджела Сарафян

    Сюжет фильма:
    Адам Кэссиди — типичный белый воротничок, пытающийся преуспеть на должности молодого специалиста в крупной телекоммуникационной корпорации. После одной весьма дорогостоящей ошибки он сталкивается лицом к лицу с безжалостным президентом компании, который соглашается не увольнять провинившегося при одном условии: Адам должен шпионить за старым наставником своего босса…




    Снималось в: США, Франция
    Киностудия: Demarest Films, EMJAG Productions, Gaumont, IM Global, Kintop Pictures, Reliance Entertainment
    Время просмотра: 01:46:06
    Перевод текста: Профессиональное (многоголосое) BaibaKo

    Файл
    Кодек для видео: XviD
    Качество фильма: HDRip (Исх. BDRip 1080p)
    Информация о видео: 688x288 (2.39:1), 23.976 fps, XviD build 50 ~844 kbps avg, 0.18 bit/pixel
    Информация о звуке: 48 kHz, MPEG Layer 3, 2 ch, ~128.00 kbps avg
    Субтитры: нет

    Семпл

    MediaInfo

    Общее
    Полное имя : S:ФильмыПаранойя. 2013. HDRip. 745 (AleksSin).avi
    Формат : AVI
    Формат/Информация : Audio Video Interleave
    Размер файла : 746 Мбайт
    Продолжительность : 1 ч. 46 м.
    Общий поток : 982 Кбит/сек
    Программа кодирования : VirtualDubMod 1.5.10.3 | www.virtualdub-fr.org || (build 2550/release)
    Библиотека кодирования : VirtualDubMod build 2550/release

    Видео
    Идентификатор : 0
    Формат : MPEG-4 Visual
    Профиль формата : Advanced Simple@L5
    Параметр BVOP формата : 2
    Параметр QPel формата : Нет
    Параметр GMC формата : Без точки перехода
    Параметр матрицы формата : Default (H.263)
    Идентификатор кодека : XVID
    Идентификатор кодека/Подсказка : XviD
    Продолжительность : 1 ч. 46 м.
    Битрейт : 845 Кбит/сек
    Ширина : 688 пикс.
    Высота : 288 пикс.
    Соотношение сторон : 2,40:1
    Частота кадров : 23,976 кадр/сек
    Цветовое пространство : YUV
    Подвыборка цветности : 4:2:0
    Битовая глубина : 8 бит
    Тип развёртки : Прогрессивная
    Метод сжатия : С потерями
    Бит/(Пиксели*Кадры) : 0.178
    Размер потока : 641 Мбайт (86%)
    Библиотека кодирования : XviD 1.2.1 (UTC 2008-12-04)

    Аудио
    Идентификатор : 1
    Формат : MPEG Audio
    Версия формата : Version 1
    Профиль формата : Layer 3
    Идентификатор кодека : 55
    Идентификатор кодека/Подсказка : MP3
    Продолжительность : 1 ч. 46 м.
    Вид битрейта : Постоянный
    Битрейт : 128 Кбит/сек
    Каналы : 2 канала
    Частота : 48,0 КГц
    Метод сжатия : С потерями
    Размер потока : 97,1 Мбайт (13%)
    Выравнивание : Соединение по промежуткам
    Продолжительность промежутка : 42 мс. (1,00 видеокадр)
    Время предзагрузки промежутка : 504 ms
    Библиотека кодирования : LAME3.99r
    Залил: AleksSin
    Размер скачиваемого торрента: 745.57 MB (781787136 Bytes)


    Паранойя / Paranoia (2013) HDRip от BitTracker | BaibaKo торрент скачать бесплатно
    загрузка...
    Рейтинг →
     (голосов: 1, оценка 3/5, голосовать можно 1 раз )

    Другие торренты по теме:

  • Паранойя / Disturbia (2007) HDRip-AVC
  • OST - Паранойя / Disturbia (2007) MP3
  • Паранойя / Paranoia (2013) CAMRip скачать через торрент бесплатно
  • Паранойя / Paranoia (2013) CAMRip от INTERCINEMA скачать через торрент бесплатно
  • Паранойя / Paranoia (2013) HDRip-AVC | Звук с TS
  • Паранойя / Paranoia (2013) HDRip | Звук с TS
  • Паранойя / Paranoia (2013) BDRip 720p | Звук с TS
  • Паранойя / Paranoia (2013) BDRip 720p | L1, D скачать через торрент бесплатно


    • Комментарии (0):

      Информация

      Информация

        Посетители, находящиеся в группе Гости, не могут оставлять комментарии в данной новости.

        ↓ Меню



        ↓ Опрос

        А Вы добавили сайт в закладки?
        Да
        Не


        Top 10 за месяц (Фильмы)