.
Авторизация | Регистрация
Хочешь лучшие торренты? Добавь свой email!
Добавить
» » Философы: Урок выживания / The Philosophers (2013) DVDRip-AVC | Лицензия торрент скачать бесплатно




    Философы: Урок выживания / The Philosophers (2013) DVDRip-AVC | Лицензия торрент скачать бесплатно

    Опубликовал: Админ | Дата: 27-02-2015, 11:09 | Просмотров: 535



    Детально о кино
    Русское название: Философы: Урок выживания
    Русское название в мировом прокате: The Philosophers
    Создали в: 2013
    Категория жанра: фантастика, триллер
    Главный режиссер: Джон Хаддлс
    Актеры: Софи Лоу, Джеймс Д’Арси, Риз Уэйкфилд, Дэрил Сабара, Бонни Райт, Кэти Финдлей, Фредди Строма, Хоуп Олэйд Уилсон, Абхи Синха, Джейкоб Артист

    Сюжет фильма: В международной школе в Джакарте таинственный учитель философии в качестве выпускного экзамена предлагает 20 студентам провести эксперимент. Этот опыт будет самым экстремальным, с которым они когда-либо сталкивались. Используя только силу логики, студенты должны выбрать, кто из них будет достоин получить место в подземном бункере — единственном месте, где можно спастись от приближающейся ядерной катастрофы. Бункер рассчитан на десять человек, а значит, тех, кого не выбирают, ожидает жестокая смерть. Реальность классной комнаты эффектно перетекает в воображаемый, но в то же время пугающий мир надвигающегося апокалипсиса.



    Снималось в: США, Индонезия / An Olive Branch Productions, SCTV
    Время просмотра: 01:42:24
    Тип перевода: Дублированное лицензия

    Файл
    Тип видео: MKV
    Качество фильма: DVDRip-AVC Рип с DVD9
    Информация о видео: 1024x424, 1587 kb/s
    Информация о звуке: AC3, 448 kb/s (6 ch)





    MI

    Format : Matroska
    Format version : Version 4 / Version 2
    File size : 1.46 GiB
    Duration : 1h 42mn
    Overall bit rate : 2 036 Kbps
    Movie name : Rip by 03nazar03
    Encoded date : UTC 2013-11-15 11:10:29
    Writing application : mkvmerge v6.1.0 (;Old Devil;) built on Mar 4 2013 09:10:42
    Writing library : libebml v1.3.0 libmatroska v1.4.0

    Video
    ID : 1
    Format : AVC
    Format/Info : Advanced Video Codec
    Format profile : High@L4.1
    Format settings, CABAC : Yes
    Format settings, ReFrames : 10 frames
    Codec ID : V_MPEG4/ISO/AVC
    Duration : 1h 42mn
    Bit rate : 1 587 Kbps
    Width : 1 024 pixels
    Height : 424 pixels
    Display aspect ratio : 2.40:1
    Frame rate : 25.000 fps
    Color space : YUV
    Chroma subsampling : 4:2:0
    Bit depth : 8 bits
    Scan type : Progressive
    Bits/(Pixel*Frame) : 0.146
    Stream size : 1.11 GiB (76%)
    Writing library : x264 core 130 r2273 b3065e6
    Encoding settings : cabac=1 / ref=10 / deblock=1:-3:-3 / analyse=0x3:0x133 / me=umh / subme=11 / psy=1 / psy_rd=1.00:0.20 / mixed_ref=1 / me_range=32 / chroma_me=1 / trellis=2 / 8x8dct=1 / cqm=0 / deadzone=21,11 / fast_pskip=0 / chroma_qp_offset=-3 / threads=12 / lookahead_threads=1 / sliced_threads=0 / nr=0 / decimate=0 / interlaced=0 / bluray_compat=0 / constrained_intra=0 / bframes=8 / b_pyramid=2 / b_adapt=2 / b_bias=0 / direct=3 / weightb=1 / open_gop=0 / weightp=2 / keyint=250 / keyint_min=25 / scenecut=40 / intra_refresh=0 / rc=2pass / mbtree=0 / bitrate=1587 / ratetol=1.0 / qcomp=0.60 / qpmin=0 / qpmax=69 / qpstep=4 / cplxblur=20.0 / qblur=0.5 / ip_ratio=1.40 / pb_ratio=1.30 / aq=1:1.00
    Language : English
    Default : Yes
    Forced : No

    Audio
    ID : 2
    Format : AC-3
    Format/Info : Audio Coding 3
    Mode extension : CM (complete main)
    Format settings, Endianness : Big
    Codec ID : A_AC3
    Duration : 1h 42mn
    Bit rate mode : Constant
    Bit rate : 448 Kbps
    Channel(s) : 6 channels
    Channel positions : Front: L C R, Side: L R, LFE
    Sampling rate : 48.0 KHz
    Bit depth : 16 bits
    Compression mode : Lossy
    Stream size : 328 MiB (22%)
    Language : Russian
    Default : Yes
    Forced : No
    Скриншоты для ознакомления


    Рип: 03nazar03
    Размер скачиваемого торрента: 1.46 GB (1563414285 Bytes)

    Философы: Урок выживания / The Philosophers (2013) DVDRip-AVC | Лицензия торрент скачать бесплатно
    загрузка...
    Рейтинг →
     (голосов: 1, оценка 5/5, голосовать можно 1 раз )

    Другие торренты по теме:

  • Философы: Урок выживания / The Philosophers (2013) HDTVRip | Чистый звук скачать через торрент бесплатно
  • Философы: Урок выживания / The Philosophers (2013) DVDRip | Лицензия
  • Философы: Урок выживания / The Philosophers (2013) HDRip | Лицензия скачать через торрент бесплатно
  • Философы: Урок выживания / The Philosophers (2013) HDRip от New-Team | D | Лицензия скачать через торрент бесплатно
  • OST - Философы: Урок выживания / The Philosophers (2014) MP3
  • Философы: Урок выживания / The Philosophers (2013) BDRip 720p | Лицензия скачать через торрент бесплатно
  • Философы: Урок выживания / The Philosophers (2013) HDRip-AVC | D | Лицензия скачать через торрент бесплатно
  • Философы: Урок выживания / The Philosophers (2013) BDRip 720p


    • Комментарии (0):

      Информация

      Информация

        Посетители, находящиеся в группе Гости, не могут оставлять комментарии в данной новости.

        ↓ Меню



        ↓ Опрос

        А Вы добавили сайт в закладки?
        Да
        Не


        Top 10 за месяц (Фильмы)