.
Авторизация | Регистрация
Хочешь лучшие торренты? Добавь свой email!
Добавить
» » Аврора: Операция Перехват / Aurora: Operation Intercept (1995) DVDRip от NovaLan | P скачать через торрент бесплатно




    Аврора: Операция Перехват / Aurora: Operation Intercept (1995) DVDRip от NovaLan | P скачать через торрент бесплатно

    Опубликовал: Админ | Дата: 27-02-2015, 11:09 | Просмотров: 366




    Снималось в: США
    Создали в: Trimark Pictures, Hess/Kallberg Productions
    Категория жанра: Боевик
    Создали в: 1995
    Время просмотра: 01:30:19
    Перевод текста: Профессиональный многоголосый
    Оригинальная аудиодорожка: Английская
    Субтитры подготовлены: Нет

    Главный режиссер: Пол Левайн

    Актеры: Брюс Пэйн, Наталья Андрейченко, Лэнс Хенриксен, Джон Стокуэлл, Майкл Чэмпион, Деннис Кристофер, Корбин Бернсен, Курт Лоуэнс, Коринн Борер, Джон Проски

    Сюжет: Похищен сверхсекретный американский самолет Аврора. ЦРУ посылает двух агентов исправить ситуацию, но они попадают в плен…



    Исходник: DVD5 R2
    Тип релиза: DVDRip
    Контейнер: AVI
    Информация о видео: 640x480 (1.33:1), 23.976 fps, XviD ~1847 kbps avg, 0.25 bit/pixel
    Информация о звуке: #1: 48 kHz, AC3 2.0 ~224.00 kbps avg (RUS)
    Информация о звуке: #2: 48 kHz, AC3 2.0 ~224.00 kbps avg (ENG)

    MediaInfo
    Общее
    Полное имя : D:1ААААврора. Операция Перехват.avi
    Формат : AVI
    Формат/Информация : Audio Video Interleave
    Размер файла : 1,46 Гбайт
    Продолжительность : 1 ч. 30 м.
    Общий поток : 2309 Кбит/сек
    Программа кодирования : VirtualDubMod 1.5.10.2 (build 2540/release)
    Библиотека кодирования : VirtualDubMod build 2540/release

    Видео
    Идентификатор : 0
    Формат : MPEG-4 Visual
    Профиль формата : Advanced Simple@L5
    Параметр BVOP формата : 2
    Параметр QPel формата : Нет
    Параметр GMC формата : Без точки перехода
    Параметр матрицы формата : Default (H.263)
    Режим смешивания : Сжатый битовый поток
    Идентификатор кодека : XVID
    Идентификатор кодека/Подсказка : XviD
    Продолжительность : 1 ч. 30 м.
    Битрейт : 1847 Кбит/сек
    Ширина : 640 пикселей
    Высота : 480 пикселей
    Соотношение сторон : 4:3
    Частота кадров : 23,976 кадра/сек
    Цветовое пространство : YUV
    Субдискретизация насыщенности : 4:2:0
    Битовая глубина : 8 бит
    Тип развёртки : Прогрессивная
    Метод сжатия : С потерями
    Бит/(Пиксели*Кадры) : 0.251
    Размер потока : 1,17 Гбайт (80%)
    Библиотека кодирования : XviD 1.2.1 (UTC 2008-12-04)

    Аудио #1
    Идентификатор : 1
    Формат : AC-3
    Формат/Информация : Audio Coding 3
    Расширение режима : CM (complete main)
    Параметр Endianness формата : Big
    Идентификатор кодека : 2000
    Продолжительность : 1 ч. 30 м.
    Вид битрейта : Постоянный
    Битрейт : 224 Кбит/сек
    Каналы : 2 канала
    Расположение каналов : Front: L R
    Частота : 48,0 КГц
    Битовая глубина : 16 бит
    Метод сжатия : С потерями
    Размер потока : 145 Мбайт (10%)
    Выравнивание : Разделение по промежуткам
    Продолжительность промежутка : 42 мс. (1,00 видеокадр)
    Время предзагрузки промежутка : 500 мс.

    Аудио #2
    Идентификатор : 2
    Формат : AC-3
    Формат/Информация : Audio Coding 3
    Расширение режима : CM (complete main)
    Параметр Endianness формата : Big
    Идентификатор кодека : 2000
    Продолжительность : 1 ч. 30 м.
    Вид битрейта : Постоянный
    Битрейт : 224 Кбит/сек
    Каналы : 2 канала
    Расположение каналов : Front: L R
    Частота : 48,0 КГц
    Битовая глубина : 16 бит
    Метод сжатия : С потерями
    Задержка видео : 8 мс.
    Размер потока : 145 Мбайт (10%)
    Выравнивание : Разделение по промежуткам
    Продолжительность промежутка : 42 мс. (1,00 видеокадр)
    Время предзагрузки промежутка : 500 мс.
    Скриншоты для ознакомления


    Релиз группа:

    Автор рипа:
    Залил: YArl
    Размер скачиваемого торрента: 1.46 GB (1564006400 Bytes)

    Аврора: Операция Перехват / Aurora: Operation Intercept (1995) DVDRip от NovaLan | P скачать через торрент бесплатно
    загрузка...
    Рейтинг →
     (голосов: 1, оценка 4/5, голосовать можно 1 раз )

    Другие торренты по теме:

  • Аврора / Aurora (2010) DVDRip от ClubTorrent
  • Аврора / Исчезающие волны / Aurora / Vanishing Waves (2012) BDRip 720p от CINEMANIA | L2 скачать через торрент бесплатно
  • Аврора / Исчезающие волны / Aurora / Vanishing Waves (2012) BDRip 1080p от CINEMANIA | L2 скачать через торрент бесплатно
  • Аврора / Aurora (2010-2011) SATRip скачать через торрент бесплатно
  • Искатели («Аврора». Мифология выстрела) / 2015 / РУ / SATRip


    • Комментарии (0):

      Информация

      Информация

        Посетители, находящиеся в группе Гости, не могут оставлять комментарии в данной новости.

        ↓ Меню



        ↓ Опрос

        А Вы добавили сайт в закладки?
        Да
        Не


        Top 10 за месяц (Фильмы)