.
Авторизация | Регистрация
Хочешь лучшие торренты? Добавь свой email!
Добавить
» » Малавита / The Family (2013) DVDRip от BitTracker | Лицензия скачать через торрент бесплатно




    Малавита / The Family (2013) DVDRip от BitTracker | Лицензия скачать через торрент бесплатно

    Опубликовал: Админ | Дата: 27-02-2015, 11:09 | Просмотров: 273



    Детально о кино
    Русское название: Малавита
    Русское название в мировом прокате: The Family
    Создали в: 2013
    Категория жанра: Комедия, криминал
    Главный режиссер: Люк Бессон / Luc Besson
    Актеры: Роберт Де Ниро, Мишель Пфайффер, Томми Ли Джонс, Дианна Агрон, Джон Фреда, Рикардо Сорберо, Доминик Кьянезе, Дэвид Белль, Джон Д’Лео, Джино Кафарелли

    Сюжет фильма:
    На тихой улочке провинциального французского городка поселился писатель по фамилии Блейк, со своим семейством и собакой Малавитой. На этом многовековое спокойствие города закончилось. Почему сгорел местный супермаркет? Чем рискует медлительный водопроводчик? Что лежит в рюкзаке у милого парня в бежевых бриджах? Никто и представить себе не мог, что на самом деле мистер Блейк — бывший глава мафии, которого власти прячут здесь от преследования. И вот в городок приезжают люди Коза Ностры…




    Снималось в: США, Франция
    Киностудия: EuropaCorp, Malavita, Relativity Media
    Время просмотра: 01:46:56
    Перевод текста: Дублированный Лицензия

    Файл
    Кодек для видео: XviD
    Качество фильма: DVDRip (Исх. DVD5)
    Информация о видео: 688x288 (2.39:1), 25 fps, XviD build 50 ~838 kbps avg, 0.17 bit/pixel
    Информация о звуке: 48 kHz, MPEG Layer 3, 2 ch, ~128.00 kbps avg
    Субтитры: нет

    Семпл

    MediaInfo

    Общее
    Полное имя : S:ФильмыМалавита. 2013. DVDRip. (AleksSin).avi
    Формат : AVI
    Формат/Информация : Audio Video Interleave
    Размер файла : 746 Мбайт
    Продолжительность : 1 ч. 46 м.
    Общий поток : 976 Кбит/сек
    Программа кодирования : VirtualDubMod 1.5.10.3 | www.virtualdub-fr.org || (build 2550/release)
    Библиотека кодирования : VirtualDubMod build 2550/release

    Видео
    Идентификатор : 0
    Формат : MPEG-4 Visual
    Профиль формата : Advanced Simple@L5
    Параметр BVOP формата : 2
    Параметр QPel формата : Нет
    Параметр GMC формата : Без точки перехода
    Параметр матрицы формата : Default (H.263)
    Идентификатор кодека : XVID
    Идентификатор кодека/Подсказка : XviD
    Продолжительность : 1 ч. 46 м.
    Битрейт : 838 Кбит/сек
    Ширина : 688 пикс.
    Высота : 288 пикс.
    Соотношение сторон : 2,40:1
    Частота кадров : 25,000 кадр/сек
    Цветовое пространство : YUV
    Подвыборка цветности : 4:2:0
    Битовая глубина : 8 бит
    Тип развёртки : Прогрессивная
    Метод сжатия : С потерями
    Бит/(Пиксели*Кадры) : 0.169
    Размер потока : 641 Мбайт (86%)
    Библиотека кодирования : XviD 1.2.1 (UTC 2008-12-04)

    Аудио
    Идентификатор : 1
    Формат : MPEG Audio
    Версия формата : Version 1
    Профиль формата : Layer 3
    Идентификатор кодека : 55
    Идентификатор кодека/Подсказка : MP3
    Продолжительность : 1 ч. 46 м.
    Вид битрейта : Постоянный
    Битрейт : 128 Кбит/сек
    Каналы : 2 канала
    Частота : 48,0 КГц
    Метод сжатия : С потерями
    Размер потока : 97,9 Мбайт (13%)
    Выравнивание : Соединение по промежуткам
    Продолжительность промежутка : 40 мс. (1,00 видеокадр)
    Время предзагрузки промежутка : 504 ms
    Библиотека кодирования : LAME3.99r
    Залил: AleksSin
    Размер скачиваемого торрента: 746.22 MB (782467072 Bytes)


    Малавита / The Family (2013) DVDRip от BitTracker | Лицензия скачать через торрент бесплатно
    загрузка...
    Рейтинг →
     (голосов: 1, оценка 4/5, голосовать можно 1 раз )

    Другие торренты по теме:

  • Малавита / The Family (2013) CAMRip от INTERCINEMA | D скачать бесплатно через торрент
  • Малавита / The Family (2013) CAMRip-AVC | D, A скачать через торрент бесплатно
  • Малавита / The Family (2013) DVDRip | Гоблин
  • Малавита / The Family (2013) DVDRip от INTERCINEMA | Чистый звук
  • Малавита / The Family (2013) DVDRip | D | Чистый звук скачать через торрент бесплатно
  • Малавита / The Family (2013) DVD5 | Лицензия
  • Малавита / The Family (2013) DVDRip-AVC | Лицензия скачать через торрент бесплатно
  • Малавита / The Family (2013) DVDRip-AVC от New-Team | D | Лицензия скачать через торрент бесплатно


    • Комментарии (0):

      Информация

      Информация

        Посетители, находящиеся в группе Гости, не могут оставлять комментарии в данной новости.

        ↓ Меню



        ↓ Опрос

        А Вы добавили сайт в закладки?
        Да
        Не


        Top 10 за месяц (Фильмы)