.
Авторизация | Регистрация
» » День мертвецов / Day of the Dead (1985) BDRip by msltel | P, A скачать через торрент бесплатно




    День мертвецов / Day of the Dead (1985) BDRip by msltel | P, A скачать через торрент бесплатно

    Опубликовал: Админ | Дата: 27-02-2015, 11:09 | Просмотров: 308



    Русское название: День мертвецов
    Русское название в мировом прокате: Day of the Dead
    Создали в: 1985
    Категория жанра: Ужасы, фантастика
    Снималось в: США, Dead Films Inc., Laurel Entertainment Inc., Laurel-Day Inc., United Film Distribution Company (UFDC)
    Главный режиссер: Джордж А. Ромеро
    Актеры: Лори Кэрдэйл, Терри Александр, Джозеф Пилато, Ярлат Сонрой, Энтон Ди Лео-младший, Ричард Либерти, Шерман Ховард, Гари Ховард Клар, Ральф Марреро, Джон Эмплас, Тасо Н. Ставракис, Грегори Никотеро, Дон Брокетт, Уильям Камерон, Дебора Картер, Винни Флинн, Дебра Гордон, Джефф Хоган, Барбара Холмс, Брюс Киркпатрик, Сьюзэн Мартинелли

    Сюжет фильма: Планета находится во власти нечисти. Только горстка людей осталась на Земле, и они должны сразиться с живыми мертвецами. Но как обуздать это порождение ада? Все попытки сделать это безуспешны. Более того, учёный - маньяк доктор Логан задался целью сделать из ужасных монстров солдат-зомби, бесстрашных и непобедимых. И оказалось, что живые ничуть не безопаснее мёртвых. Сколько ещё крови должно пролиться, прежде чем человечество остановит ужасное нашествие…

    Качество фильма: BDRip
    Размер скачиваемого торрента: 2.26 ГБ
    Время просмотра: 01:40:58

    Информация о видео: XviD, 1900 Кбит/с, 720x400
    Информация о звуке 1: русский, 48 kHz, AC3, 6 ch, 448 kbps avg, Профессиональный многоголосый
    Информация о звуке 2: русский, 48 kHz, AC3, 6 ch, 448 kbps avg, Авторский, Сергей Визгунов
    Информация о звуке 3: русский, 48 kHz, AC3, 2 ch, 192 kbps avg, Авторский, Юрий Живов

    Внешние файлы
    Информация о звуке: английский, 48 kHz, AC3, 2 ch, 192 kbps avg, Оригинал
    Субтитры: русские
    Субтитры: английские (для слабослышащих)

    Исходник: FREEDONOR (HDTracker)

    Сравнение с исходником



    Награды
    Сатурн, 1986 год
    Победитель (1):
    Лучший грим
    MediaInfo
    Общее
    Полное имя : E:VideoDen.mertvecov.1985.XviD.BDRipDen.mertvecov.1985.eng.SDH.srt
    Формат : SubRip
    Размер файла : 75,3 Кбайт

    Текст
    Формат : SubRip
    Метод сжатия : Без потерь

    Общее
    Полное имя : E:VideoDen.mertvecov.1985.XviD.BDRipDen.mertvecov.1985.Original.eng.ac3
    Формат : AC-3
    Формат/Информация : Audio Coding 3
    Размер файла : 139 Мбайт
    Продолжительность : 1 ч. 40 м.
    Режим общего битрейта : Постоянный
    Общий поток : 192 Кбит/сек

    Аудио
    Формат : AC-3
    Формат/Информация : Audio Coding 3
    Расширение режима : CM (complete main)
    Параметр Endianness формата : Big
    Продолжительность : 1 ч. 40 м.
    Вид битрейта : Постоянный
    Битрейт : 192 Кбит/сек
    Каналы : 2 канала
    Расположение каналов : Front: L R
    Частота : 48,0 КГц
    Битовая глубина : 16 бит
    Метод сжатия : С потерями
    Размер потока : 139 Мбайт (100%)

    Общее
    Полное имя : E:VideoDen.mertvecov.1985.XviD.BDRipDen.mertvecov.1985.rus.srt
    Формат : SubRip
    Размер файла : 85,6 Кбайт

    Текст
    Формат : SubRip
    Метод сжатия : Без потерь

    Общее
    Полное имя : E:VideoDen.mertvecov.1985.XviD.BDRipDen.mertvecov.1985.XviD.BDRip.avi
    Формат : AVI
    Формат/Информация : Audio Video Interleave
    Профиль формата : OpenDML
    Размер файла : 2,12 Гбайт
    Продолжительность : 1 ч. 40 м.
    Общий поток : 3012 Кбит/сек
    Программа кодирования : VirtualDubMod 1.5.10.2 (build 2540/release)
    Библиотека кодирования : VirtualDubMod build 2540/release

    Видео
    Идентификатор : 0
    Формат : MPEG-4 Visual
    Профиль формата : Advanced Simple@L5
    Параметр BVOP формата : 1
    Параметр QPel формата : Нет
    Параметр GMC формата : Без точки перехода
    Параметр матрицы формата : Default (H.263)
    Режим смешивания : Сжатый битовый поток
    Идентификатор кодека : XVID
    Идентификатор кодека/Подсказка : XviD
    Продолжительность : 1 ч. 40 м.
    Битрейт : 1900 Кбит/сек
    Ширина : 720 пикселей
    Высота : 400 пикселей
    Соотношение сторон : 16:9
    Частота кадров : 23,976 кадра/сек
    Цветовое пространство : YUV
    Субдискретизация насыщенности : 4:2:0
    Битовая глубина : 8 бит
    Тип развёртки : Прогрессивная
    Метод сжатия : С потерями
    Бит/(Пиксели*Кадры) : 0.275
    Размер потока : 1,34 Гбайт (63%)
    Библиотека кодирования : XviD 1.2.1 (UTC 2008-12-04)

    Аудио #1
    Идентификатор : 1
    Формат : AC-3
    Формат/Информация : Audio Coding 3
    Расширение режима : CM (complete main)
    Параметр Endianness формата : Big
    Идентификатор кодека : 2000
    Продолжительность : 1 ч. 40 м.
    Вид битрейта : Постоянный
    Битрейт : 448 Кбит/сек
    Каналы : 6 каналов
    Расположение каналов : Front: L C R, Side: L R, LFE
    Частота : 48,0 КГц
    Битовая глубина : 16 бит
    Метод сжатия : С потерями
    Размер потока : 324 Мбайт (15%)
    Выравнивание : Разделение по промежуткам
    Продолжительность промежутка : 42 мс. (1,00 видеокадр)
    Время предзагрузки промежутка : 500 мс.

    Аудио #2
    Идентификатор : 2
    Формат : AC-3
    Формат/Информация : Audio Coding 3
    Расширение режима : CM (complete main)
    Параметр Endianness формата : Big
    Идентификатор кодека : 2000
    Продолжительность : 1 ч. 40 м.
    Вид битрейта : Постоянный
    Битрейт : 448 Кбит/сек
    Каналы : 6 каналов
    Расположение каналов : Front: L C R, Side: L R, LFE
    Частота : 48,0 КГц
    Битовая глубина : 16 бит
    Метод сжатия : С потерями
    Размер потока : 324 Мбайт (15%)
    Выравнивание : Разделение по промежуткам
    Продолжительность промежутка : 42 мс. (1,00 видеокадр)
    Время предзагрузки промежутка : 500 мс.

    Аудио #3
    Идентификатор : 3
    Формат : AC-3
    Формат/Информация : Audio Coding 3
    Расширение режима : CM (complete main)
    Параметр Endianness формата : Big
    Идентификатор кодека : 2000
    Продолжительность : 1 ч. 40 м.
    Вид битрейта : Постоянный
    Битрейт : 192 Кбит/сек
    Каналы : 2 канала
    Расположение каналов : Front: L R
    Частота : 48,0 КГц
    Битовая глубина : 16 бит
    Метод сжатия : С потерями
    Размер потока : 139 Мбайт (6%)
    Выравнивание : Разделение по промежуткам
    Продолжительность промежутка : 42 мс. (1,00 видеокадр)
    Время предзагрузки промежутка : 500 мс.
    Скриншоты для ознакомления



    Залил: msltel
    Размер скачиваемого торрента: 2.26 GB (2426405776 Bytes)

    День мертвецов / Day of the Dead (1985) BDRip by msltel | P, A скачать через торрент бесплатно
    загрузка...
    Рейтинг →
     (голосов: 1, оценка 5/5, голосовать можно 1 раз )

    Другие торренты по теме:

  • День мертвецов / Day of the Dead (1985) BDRip 720p by msltel | P, A скачать через торрент бесплатно
  • День мертвецов / Day of the Dead (1985) BDRip 1080p by msltel | P, A торрент скачать бесплатно


    • Комментарии (0):

      Информация

      Информация

        Посетители, находящиеся в группе Гости, не могут оставлять комментарии в данной новости.

        ↓ Меню



        ↓ Опрос

        А Вы добавили сайт в закладки?
        Да
        Не


        Top 10 за неделю (Фильмы)