.
Авторизация | Регистрация
» » Королевы ринга / Les reines du ring (2013) DVDRip от New-Team | P | лицензия скачать через торрент бесплатно




    Королевы ринга / Les reines du ring (2013) DVDRip от New-Team | P | лицензия скачать через торрент бесплатно

    Опубликовал: Админ | Дата: 27-02-2015, 11:09 | Просмотров: 377

    Пусть победит сильнейшая



    Снималось в: Франция / Canal fr, Cin?...
    Категория жанра: комедия
    Создали в: 2013
    Время просмотра: 01:33:26

    Перевод текста: Профессиональный (многоголосый, закадровый)
    Субтитры подготовлены:нет
    Оригинальная аудиодорожка: нет

    Главный режиссер: Жан-Марк Рудники / Jean-Marc Rudnicki

    Актеры: Марилу Берри, Натали Бэй, Андре Дюссолье, Одри Флеро, Корина Масьеро, Изабель Нанти, Фрэнк Андриё, Вероник Барро, Биюна, Люси-Сериз Буве...

    Сюжет: Четырех кассирш из супермаркета заела повседневность: одной изменил муж, у другой проблемы с близким человеком, третья — роковая красотка в поисках приключений, а четвертая — просто гот. Они решили бросить вызов миру и стать королевами ринга. Они создали себе новые имена, костюмы, образы. И теперь их заметят!



    Качество фильма: DVDRip / DVD9 R5
    Тип видео: AVI

    Информация о видео: 720x304 (2.35:1), 25.000 fps, XVID ~977 kbps avg, 0.179 bit/pixel
    Информация о звуке: Русский 48 kHz, МР3, 2 ch, 128.00 kbps Constant

    Раздача от:
    MediaInfo

    Общее
    Полное имя : Korolevy.ringa.2013.P.DVDRip.745MB_New-Team_by_avproh.avi
    Формат : AVI
    Формат/Информация : Audio Video Interleave
    Размер файла : 745 Мбайт
    Продолжительность : 1 ч. 33 м.
    Общий поток : 1115 Кбит/сек
    Программа кодирования : VirtualDubMod 1.5.10.3 | www.virtualdub-fr.org || (build 2550/release)
    Библиотека кодирования : VirtualDubMod build 2550/release

    Видео
    Идентификатор : 0
    Формат : MPEG-4 Visual
    Профиль формата : Advanced Simple@L5
    Параметр BVOP формата : 1
    Параметр QPel формата : Нет
    Параметр GMC формата : Без точки перехода
    Параметр матрицы формата : Выборочная
    Идентификатор кодека : XVID
    Идентификатор кодека/Подсказка : XviD
    Продолжительность : 1 ч. 33 м.
    Битрейт : 977 Кбит/сек
    Ширина : 720 пикселей
    Высота : 304 пикселя
    Соотношение сторон : 2,35:1
    Частота кадров : 25,000 кадров/сек
    Цветовое пространство : YUV
    Субдискретизация насыщенности : 4:2:0
    Битовая глубина : 8 бит
    Тип развёртки : Прогрессивная
    Метод сжатия : С потерями
    Бит/(Пиксели*Кадры) : 0.179
    Размер потока : 653 Мбайт (88%)
    Библиотека кодирования : XviD 73

    Аудио
    Идентификатор : 1
    Формат : MPEG Audio
    Версия формата : Version 1
    Профиль формата : Layer 3
    Идентификатор кодека : 55
    Идентификатор кодека/Подсказка : MP3
    Продолжительность : 1 ч. 33 м.
    Вид битрейта : Постоянный
    Битрейт : 128 Кбит/сек
    Каналы : 2 канала
    Частота : 48,0 КГц
    Метод сжатия : С потерями
    Размер потока : 85,5 Мбайт (11%)
    Выравнивание : Соединение по промежуткам
    Продолжительность промежутка : 40 мс. (1,00 видеокадр)
    Время предзагрузки промежутка : 504 мс.

    Скриншоты для ознакомления:



    Залил: avproh
    Размер скачиваемого торрента: 744.98 MB (781170688 Bytes)

    Королевы ринга / Les reines du ring (2013) DVDRip от New-Team | P | лицензия скачать через торрент бесплатно
    загрузка...
    Рейтинг →
     (голосов: 1, оценка 4/5, голосовать можно 1 раз )

    Другие торренты по теме:

  • Королевы ринга / Les reines du ring (2013) DVDRip | Лицензия скачать через торрент бесплатно
  • Королевы ринга / Les reines du ring (2013) DVD9 R5 от New-Team | P | лицензия скачать через торрент бесплатно
  • Королевы ринга / Les reines du ring (2013) DVD5 от New-Team | P | сжатый скачать через торрент бесплатно
  • Королевы ринга / Les reines du ring (2013) DVDRip-AVC от New-Team | P | лицензия скачать через торрент бесплатно
  • Королевы ринга / Les reines du ring (2013) HDTVRip 1080p от MediaClub | P скачать через торрент бесплатно
  • Королевы ринга / Les reines du ring (2013) HDTVRip 720p от MediaClub | P скачать через торрент бесплатно


    • Комментарии (0):

      Информация

      Информация

        Посетители, находящиеся в группе Гости, не могут оставлять комментарии в данной новости.

        ↓ Меню



        ↓ Опрос

        А Вы добавили сайт в закладки?
        Да
        Не


        Top 10 за неделю (Фильмы)