.
Авторизация | Регистрация
Хочешь лучшие торренты? Добавь свой email!
Добавить
» » Тело / El cuerpo / The Body (2012) BDRip 1080p | Карповский торрент скачать бесплатно




    Тело / El cuerpo / The Body (2012) BDRip 1080p | Карповский торрент скачать бесплатно

    Опубликовал: Админ | Дата: 27-02-2015, 11:09 | Просмотров: 254



    Детально о кино
    Русское название: Тело
    Русское название в мировом прокате: El cuerpo (The Body)
    Создали в: 2012
    Категория жанра: Триллер
    Снималось в: Испания, Antena 3 Films, Canal Espa?a, Rodar y Rodar Cine y Televisi?n S.L.
    Главный режиссер: Ориол Паоло
    Актеры: Белен Руэда, Уго Силва, Аура Гарридо, Хосе Коронадо, Хуан Пабло Шук, Наусикая Боннин, Кристина Пласас, Ориол Вила, Патриция Баргальо, Хорди Планас

    Сюжет фильма: Грузовик сбивает человека, убегающего от кого-то или от чего-то в панике. Прибывшие на место полицейские выясняют, что погибший — ночной сторож из близлежащего морга. Так что так напугало несчастного? И куда делся из отсека N3 недавно привезенный в морг труп?

    Качество фильма: BDRip (1080p)
    Информация о видео: MPEG-4 AVC, 17000 Кбит/с, 1920x804
    Информация о звуке: Русский (AC3, 6 ch, 448 Кбит/с), английский (DTS, 6 ch, 1510 Кбит/с)
    Размер скачиваемого торрента: 14.72 ГБ
    Время просмотра: 01:51:11
    Перевод текста: Авторский одноголосый (Карповский Антон)
    Субтитры: Английские

    MI
    Общее
    Уникальный идентификатор : 218346341090191385435689564883000448970 (0xA443F9C48BB0D3A4AECA0054B95F57CA)
    Полное имя : D:Тело.(El Cuerpo).(The Body).2012.BDRip 1080p.mkv
    Формат : Matroska
    Версия формата : Version 2
    Размер файла : 14,7 Гбайт
    Продолжительность : 1 ч. 51 м.
    Общий поток : 19,0 Мбит/сек
    Название фильма : bog3417
    Дата кодирования : UTC 2013-11-17 10:37:39
    Программа кодирования : mkvmerge v6.3.0 (;You can;t stop me!;) built on Jun 28 2013 20:09:41
    Библиотека кодирования : libebml v1.3.0 libmatroska v1.4.0

    Видео
    Идентификатор : 1
    Формат : AVC
    Формат/Информация : Advanced Video Codec
    Профиль формата : High@L4.1
    Параметр CABAC формата : Да
    Параметр ReFrames формата : 5 кадров
    Идентификатор кодека : V_MPEG4/ISO/AVC
    Продолжительность : 1 ч. 51 м.
    Битрейт : 17,0 Мбит/сек
    Ширина : 1920 пикселей
    Высота : 804 пикселя
    Соотношение сторон : 2,40:1
    Режим частоты кадров : Постоянный
    Частота кадров : 24,000 кадра/сек
    Цветовое пространство : YUV
    Субдискретизация насыщенности : 4:2:0
    Битовая глубина : 8 бит
    Тип развёртки : Прогрессивная
    Бит/(Пиксели*Кадры) : 0.459
    Размер потока : 12,9 Гбайт (88%)
    Библиотека кодирования : x264 core 132 r2310 76a5c3a
    Настройки программы : cabac=1 / ref=5 / deblock=1:-3:-3 / analyse=0x3:0x133 / me=tesa / subme=11 / psy=1 / psy_rd=1.05:0.00 / mixed_ref=1 / me_range=24 / chroma_me=1 / trellis=2 / 8x8dct=1 / cqm=0 / deadzone=21,11 / fast_pskip=1 / chroma_qp_offset=-2 / threads=12 / lookahead_threads=2 / sliced_threads=0 / nr=0 / decimate=1 / interlaced=0 / bluray_compat=0 / constrained_intra=0 / bframes=8 / b_pyramid=2 / b_adapt=2 / b_bias=0 / direct=3 / weightb=1 / open_gop=0 / weightp=2 / keyint=240 / keyint_min=24 / scenecut=40 / intra_refresh=0 / rc=2pass / mbtree=0 / bitrate=17000 / ratetol=1.0 / qcomp=0.60 / qpmin=10 / qpmax=69 / qpstep=4 / cplxblur=20.0 / qblur=0.5 / ip_ratio=1.40 / pb_ratio=1.30 / aq=2:0.55
    Язык : Spanish
    Default : Да
    Forced : Нет

    Аудио #1
    Идентификатор : 2
    Формат : AC-3
    Формат/Информация : Audio Coding 3
    Расширение режима : CM (complete main)
    Параметр Endianness формата : Big
    Идентификатор кодека : A_AC3
    Продолжительность : 1 ч. 51 м.
    Вид битрейта : Постоянный
    Битрейт : 448 Кбит/сек
    Каналы : 6 каналов
    Расположение каналов : Front: L C R, Side: L R, LFE
    Частота : 48,0 КГц
    Битовая глубина : 16 бит
    Метод сжатия : С потерями
    Размер потока : 356 Мбайт (2%)
    Заголовок : Карповский
    Язык : Russian
    Default : Да
    Forced : Нет

    Аудио #2
    Идентификатор : 3
    Формат : DTS
    Формат/Информация : Digital Theater Systems
    Режим : 16
    Параметр Endianness формата : Big
    Идентификатор кодека : A_DTS
    Продолжительность : 1 ч. 51 м.
    Вид битрейта : Постоянный
    Битрейт : 1509 Кбит/сек
    Каналы : 6 каналов
    Расположение каналов : Front: L C R, Side: L R, LFE
    Частота : 48,0 КГц
    Битовая глубина : 24 бит
    Метод сжатия : С потерями
    Размер потока : 1,17 Гбайт (8%)
    Заголовок : Оригинал
    Язык : Spanish
    Default : Нет
    Forced : Нет

    Текст
    Идентификатор : 4
    Формат : UTF-8
    Идентификатор кодека : S_TEXT/UTF8
    Идентификатор кодека/Информация : UTF-8 Plain Text
    Заголовок : Full
    Язык : English
    Default : Нет
    Forced : Нет

    Меню
    00:00:00.000 : en:00:00:00.000
    00:04:36.818 : en:00:04:36.818
    00:09:16.639 : en:00:09:16.639
    00:14:39.587 : en:00:14:39.587
    00:21:55.689 : en:00:21:55.689
    00:26:34.343 : en:00:26:34.343
    00:34:23.895 : en:00:34:23.895
    00:41:06.964 : en:00:41:06.964
    00:48:30.825 : en:00:48:30.825
    00:56:45.652 : en:00:56:45.652
    01:05:11.074 : en:01:05:11.074
    01:11:21.903 : en:01:11:21.903
    01:19:30.724 : en:01:19:30.724
    01:25:00.887 : en:01:25:00.887
    01:31:49.838 : en:01:31:49.838
    01:37:32.889 : en:01:37:32.889
    01:44:44.737 : en:01:44:44.737

    Скриншоты для ознакомления



    Размер скачиваемого торрента: 14.72 GB (15808687764 Bytes)

    Тело / El cuerpo / The Body (2012) BDRip 1080p | Карповский торрент скачать бесплатно
    загрузка...
    Рейтинг →
     (голосов: 1, оценка 5/5, голосовать можно 1 раз )

    Другие торренты по теме:

  • За что мне такое тело / My Naked Secret (2012) TVRip от Files-x
  • Специальный корреспондент. Прибыльное тело (2013) SATRip
  • Тело / El cuerpo (2012) HDRip от Хихидок | L1
  • Расчлененное тело / Body Parts (1991) DVDRip | A
  • Незахороненное тело / Undeparted Body (2012) DVDRip
  • Тело / El cuerpo / The Body (2012) HDRip | L1
  • Подставное тело / Body Double (1984) BDRemux 1080p от MediaClub | P, A
  • Подставное тело / Body Double (1984) BDRip 720p от MediaClub | P, A


    • Комментарии (0):

      Информация

      Информация

        Посетители, находящиеся в группе Гости, не могут оставлять комментарии в данной новости.

        ↓ Меню



        ↓ Опрос

        А Вы добавили сайт в закладки?
        Да
        Не


        Top 10 за месяц (Фильмы)