.
Авторизация | Регистрация
Хочешь лучшие торренты? Добавь свой email!
Добавить
» » Джобс: Империя соблазна / jOBS (2013) BDRip 720p | Лицензия | US-Transfer скачать через торрент бесплатно




    Джобс: Империя соблазна / jOBS (2013) BDRip 720p | Лицензия | US-Transfer скачать через торрент бесплатно

    Опубликовал: Админ | Дата: 27-02-2015, 11:09 | Просмотров: 567



    Детально о кино
    Русское название: Джобс: Империя соблазна
    Русское название в мировом прокате: jOBS
    Создали в: 2013
    Категория жанра: Драма, биография
    Снималось в: США, Devoted Consultants, Endgame Entertainment, Five Star Institute, If Entertainment, Open Road Films (II), Silver Reel, Venture Forth
    Главный режиссер: Джошуа Майкл Штерн
    Актеры: Эштон Кутчер, Дермот Малруни, Джош Гад, Лукас Хаас, Дж.К. Симмонс, Лесли Энн Уоррен, Рон Элдард, Ана О’Райли, Джон Гец, Джеймс Вудс

    Сюжет фильма: Он был молод, красив и чертовски талантлив. Начав с нуля, он смог построить мировую империю соблазна. О нем грезили женщины. Ему завидовали мужчины. Он соблазнил миллионы. Его звали Стив Джобс.



    Файл
    Качество фильма: BDRip (720p)
    Информация о видео: MPEG-4 AVC, 4635 Кбит/с, 1280x544
    Информация о звуке: Русский (DTS, 6 ch, 1510 Кбит/с), (AC3, 6 ch, 448 Кбит/с), английский (DTS, 6 ch, 1510 Кбит/с)
    Размер скачиваемого торрента: 7.26 ГБ
    Время просмотра: 02:08:14
    Перевод текста: Дублированный лицензия
    Субтитры: Английские

    Разница между трансферами
    http://screenshotcomparison.com/comparison/49474/picture:1

    MI

    бщее
    Уникальный идентификатор : 218131357056196651472863365692766050537 (0xA41A923C8D0FF117A480D09AF9D458E9)
    Полное имя : D:Jobs.2013.BluRay.720p.x264.DTS.Rus.Eng.Subs-CHD.mkv
    Формат : Matroska
    Версия формата : Version 2
    Размер файла : 7,26 Гбайт
    Продолжительность : 2 ч. 8 м.
    Общий поток : 8104 Кбит/сек
    Название фильма : Jobs (2013) - Release for TMD by HDT
    Дата кодирования : UTC 2013-11-18 15:14:51
    Программа кодирования : mkvmerge v6.3.0 (;You can;t stop me!;) built on Jun 28 2013 20:09:41
    Библиотека кодирования : libebml v1.3.0 libmatroska v1.4.0

    Видео
    Идентификатор : 1
    Формат : AVC
    Формат/Информация : Advanced Video Codec
    Профиль формата : High@L4.1
    Параметр CABAC формата : Да
    Параметр ReFrames формата : 10 кадров
    Идентификатор кодека : V_MPEG4/ISO/AVC
    Продолжительность : 2 ч. 8 м.
    Битрейт : 4635 Кбит/сек
    Ширина : 1280 пикселей
    Высота : 544 пикселя
    Соотношение сторон : 2,35:1
    Режим частоты кадров : Постоянный
    Частота кадров : 23,976 кадра/сек
    Цветовое пространство : YUV
    Субдискретизация насыщенности : 4:2:0
    Битовая глубина : 8 бит
    Тип развёртки : Прогрессивная
    Бит/(Пиксели*Кадры) : 0.278
    Размер потока : 4,01 Гбайт (55%)
    Заголовок : Jobs.2013.BluRay.720p.DTS.x264-CHD
    Библиотека кодирования : x264 core 138 r2356 a1d3d17
    Настройки программы : cabac=1 / ref=10 / deblock=1:-3:-3 / analyse=0x3:0x113 / me=umh / subme=10 / psy=1 / psy_rd=1.00:0.05 / mixed_ref=1 / me_range=32 / chroma_me=1 / trellis=2 / 8x8dct=1 / cqm=0 / deadzone=21,11 / fast_pskip=0 / chroma_qp_offset=-2 / threads=18 / lookahead_threads=1 / sliced_threads=0 / nr=0 / decimate=1 / interlaced=0 / bluray_compat=0 / constrained_intra=0 / bframes=4 / b_pyramid=2 / b_adapt=2 / b_bias=0 / direct=3 / weightb=1 / open_gop=0 / weightp=2 / keyint=250 / keyint_min=23 / scenecut=40 / intra_refresh=0 / rc=2pass / mbtree=0 / bitrate=4635 / ratetol=1.0 / qcomp=0.70 / qpmin=0 / qpmax=69 / qpstep=4 / cplxblur=20.0 / qblur=0.5 / ip_ratio=1.40 / pb_ratio=1.30 / aq=2:1.00
    Язык : English
    Default : Да
    Forced : Нет

    Аудио #1
    Идентификатор : 2
    Формат : AC-3
    Формат/Информация : Audio Coding 3
    Расширение режима : CM (complete main)
    Параметр Endianness формата : Big
    Идентификатор кодека : A_AC3
    Продолжительность : 2 ч. 8 м.
    Вид битрейта : Постоянный
    Битрейт : 448 Кбит/сек
    Каналы : 6 каналов
    Расположение каналов : Front: L C R, Side: L R, LFE
    Частота : 48,0 КГц
    Битовая глубина : 16 бит
    Метод сжатия : С потерями
    Размер потока : 411 Мбайт (6%)
    Язык : Russian
    Default : Да
    Forced : Нет

    Аудио #2
    Идентификатор : 3
    Формат : DTS
    Формат/Информация : Digital Theater Systems
    Режим : 16
    Параметр Endianness формата : Big
    Идентификатор кодека : A_DTS
    Продолжительность : 2 ч. 8 м.
    Вид битрейта : Постоянный
    Битрейт : 1510 Кбит/сек
    Каналы : 6 каналов
    Расположение каналов : Front: L C R, Side: L R, LFE
    Частота : 48,0 КГц
    Битовая глубина : 16 бит
    Метод сжатия : С потерями
    Размер потока : 1,35 Гбайт (19%)
    Заголовок : DTS 5.1 @ 1536 kbps - Dub, BD RUS
    Язык : Russian
    Default : Нет
    Forced : Да

    Аудио #3
    Идентификатор : 4
    Формат : DTS
    Формат/Информация : Digital Theater Systems
    Режим : 16
    Параметр Endianness формата : Big
    Идентификатор кодека : A_DTS
    Продолжительность : 2 ч. 8 м.
    Вид битрейта : Постоянный
    Битрейт : 1509 Кбит/сек
    Каналы : 6 каналов
    Расположение каналов : Front: L C R, Side: L R, LFE
    Частота : 48,0 КГц
    Битовая глубина : 24 бит
    Метод сжатия : С потерями
    Размер потока : 1,35 Гбайт (19%)
    Заголовок : DTS 5.1 @ 1536 kbps
    Язык : English
    Default : Нет
    Forced : Нет

    Текст
    Идентификатор : 5
    Формат : UTF-8
    Идентификатор кодека : S_TEXT/UTF8
    Идентификатор кодека/Информация : UTF-8 Plain Text
    Язык : English
    Default : Нет
    Forced : Нет

    Меню
    00:00:00.000 : en:00:00:00.000
    00:04:12.752 : en:00:04:12.752
    00:12:03.306 : en:00:12:03.306
    00:19:43.432 : en:00:19:43.432
    00:26:16.867 : en:00:26:16.867
    00:33:06.067 : en:00:33:06.067
    00:40:17.040 : en:00:40:17.040
    00:48:22.650 : en:00:48:22.650
    00:55:24.780 : en:00:55:24.780
    00:59:28.148 : en:00:59:28.148
    01:05:36.808 : en:01:05:36.808
    01:13:55.264 : en:01:13:55.264
    01:21:31.428 : en:01:21:31.428
    01:28:51.201 : en:01:28:51.201
    01:33:15.590 : en:01:33:15.590
    01:39:02.395 : en:01:39:02.395
    01:43:18.609 : en:01:43:18.609
    01:48:09.066 : en:01:48:09.066
    01:54:46.171 : en:01:54:46.171
    02:00:29.013 : en:02:00:29.013

    Скриншоты для ознакомления


    Размер скачиваемого торрента: 7.26 GB (7794133355 Bytes)

    Джобс: Империя соблазна / jOBS (2013) BDRip 720p | Лицензия | US-Transfer скачать через торрент бесплатно
    загрузка...
    Рейтинг →
     (голосов: 1, оценка 5/5, голосовать можно 1 раз )

    Другие торренты по теме:

  • Джобс: Империя соблазна / jOBS (2013) WEBRip от INTERCINEMA | Звук с TS скачать бесплатно через торрент
  • Джобс: Империя соблазна / jOBS (2013) WEBRip от INTERCINEMA | Чистый звук скачать через торрент бесплатно
  • OST - Джобс: Империя соблазна / jOBS (2013) M4A
  • Джобс: Империя соблазна / jOBS (2013) BDRip 720p | Лицензия скачать через торрент бесплатно
  • Джобс: Империя соблазна / jOBS (2013) BDRemux 1080i | Лицензия скачать через торрент бесплатно
  • Джобс: Империя соблазна / jOBS (2013) Blu-Ray 1080i | Лицензия скачать через торрент бесплатно
  • Джобс: Империя соблазна / jOBS (2013) HDRip от Scarabey | Лицензия скачать через торрент бесплатно
  • Джобс: Империя соблазна / jOBS (2013) BDRip 720p | Лицензия скачать через торрент бесплатно


    • Комментарии (0):

      Информация

      Информация

        Посетители, находящиеся в группе Гости, не могут оставлять комментарии в данной новости.

        ↓ Меню



        ↓ Опрос

        А Вы добавили сайт в закладки?
        Да
        Не


        Top 10 за месяц (Фильмы)