.
Авторизация | Регистрация
Хочешь лучшие торренты? Добавь свой email!
Добавить
» » Орудия смерти: Город костей / The Mortal Instruments: City of Bones (2013) BDRemux 1080p от ExKinoRay | US-Transfer | iTunes Russian, P торрент скачать бесплатно




    Орудия смерти: Город костей / The Mortal Instruments: City of Bones (2013) BDRemux 1080p от ExKinoRay | US-Transfer | iTunes Russian, P торрент скачать бесплатно

    Опубликовал: Админ | Дата: 27-02-2015, 11:09 | Просмотров: 256




    Детально о кино

    Русское название: Орудия смерти: Город костей
    Русское название в мировом прокате: The Mortal Instruments: City of Bones
    Создали в: 2013
    Категория жанра: Фэнтези, боевик, драма, мелодрама, детектив, приключения
    Снималось в: США, Германия, Constantin Film Produktion, Sony Pictures Entertainment (SPE), Unique Features
    Главный режиссер: Харольд Цварт
    Актеры: Джейми Кэмпбелл Бауэр, Лили Коллинз, Лина Хиди, Эйдан Тёрнер, Джонатан Рис-Майерс, Роберт Шиэн, Джемайма Уэст, Кевин Зегерс, Джаред Харрис, Кевин Дюран, Си Си Эйч Паундер, Гарри Ван Горкум, Стивен Р. Харт, Годфри Гао, Чад Коннелл


    Сюжет фильма: Клэри Фрэй всегда считала себя самой обыкновенной девушкой, пока не выяснилось, что она — потомок древнего рода Сумеречных Охотников, тайной касты воинов-полуангелов, защищающих наш мир от демонов. Когда мама Клэри исчезает, девушка объединяется с Сумеречными охотниками, чтобы спасти ее. Так начинается ее опасное знакомство с иной реальностью, в которой существуют демоны, маги, вампиры, оборотни и другие смертоносные существа.






    Файл

    Качество фильма: Blu-Ray Remux (1080p)
    Информация о видео: MPEG-4 AVC, 24793 Кбит/с, 1920x1080, 23.976 кадр/с
    Информация о звуке: Русский (АС3, 6 ch, 384 Кбит/с), (АС3, 6 ch, 448 Кбит/с), английский (DTS-HD MA, 6 ch, 3819 Кбит/с)
    Размер скачиваемого торрента: 26.79 ГБ
    Время просмотра: 02:10:15
    Перевод текста: Дублированный, профессиональный многоголосый
    Субтитры: Английские


    Аудио1: Дублированный (iTunes Russian)
    Аудио2: Профессиональный многоголосый
    Субтитры: Английские (для слабослышащих)
    За исходник, огромное спасибо BLUEBIRD




    Инфо-файл

    Общее
    Уникальный идентификатор : 186205078196421812474822186391711637692 (0x8C15CB28AF389CCC9F4F9DD9C0C9E0BC)
    Полное имя : C:ЗагрузкиThe.Mortal.Instruments.City.of.Bones.2013.BDRemux.(1080p).ExKinoRay.mkv
    Формат : Matroska
    Версия формата : Version 2
    Размер файла : 26,8 Гбайт
    Продолжительность : 2 ч. 10 м.
    Режим общего битрейта : Переменный
    Общий поток : 29,4 Мбит/сек
    Название фильма : Орудия смерти: Город костей. 2013. Сборка: ollan
    Дата кодирования : UTC 2013-11-19 11:14:21
    Программа кодирования : mkvmerge v5.6.0 (;Kenya Kane;) built on May 27 2012 16:44:04
    Библиотека кодирования : libebml v1.2.3 libmatroska v1.3.0

    Видео
    Идентификатор : 1
    Формат : AVC
    Формат/Информация : Advanced Video Codec
    Профиль формата : High@L4.1
    Параметр CABAC формата : Да
    Параметр ReFrames формата : 2 кадра
    Параметр GOP формата : M=1, N=10
    Идентификатор кодека : V_MPEG4/ISO/AVC
    Продолжительность : 2 ч. 10 м.
    Вид битрейта : Переменный
    Ширина : 1920 пикселей
    Высота : 1080 пикселей
    Соотношение сторон : 16:9
    Режим частоты кадров : Постоянный
    Частота кадров : 23,976 кадра/сек
    Цветовое пространство : YUV
    Субдискретизация насыщенности : 4:2:0
    Битовая глубина : 8 бит
    Тип развёртки : Прогрессивная
    Default : Да
    Forced : Нет

    Аудио #1
    Идентификатор : 2
    Формат : AC-3
    Формат/Информация : Audio Coding 3
    Расширение режима : CM (complete main)
    Параметр Endianness формата : Big
    Идентификатор кодека : A_AC3
    Продолжительность : 2 ч. 10 м.
    Вид битрейта : Постоянный
    Битрейт : 384 Кбит/сек
    Каналы : 6 каналов
    Расположение каналов : Front: L C R, Side: L R, LFE
    Частота : 48,0 КГц
    Битовая глубина : 16 бит
    Метод сжатия : С потерями
    Размер потока : 358 Мбайт (1%)
    Заголовок : Дублированный (iTunes Russian)
    Язык : Russian
    Default : Да
    Forced : Да

    Аудио #2
    Идентификатор : 3
    Формат : AC-3
    Формат/Информация : Audio Coding 3
    Расширение режима : CM (complete main)
    Параметр Endianness формата : Big
    Идентификатор кодека : A_AC3
    Продолжительность : 2 ч. 10 м.
    Вид битрейта : Постоянный
    Битрейт : 448 Кбит/сек
    Каналы : 6 каналов
    Расположение каналов : Front: L C R, Side: L R, LFE
    Частота : 48,0 КГц
    Битовая глубина : 16 бит
    Метод сжатия : С потерями
    Размер потока : 417 Мбайт (2%)
    Заголовок : Профессиональный многоголосый
    Язык : Russian
    Default : Нет
    Forced : Нет

    Аудио #3
    Идентификатор : 4
    Формат : DTS
    Формат/Информация : Digital Theater Systems
    Профиль формата : MA / Core
    Режим : 16
    Параметр Endianness формата : Big
    Идентификатор кодека : A_DTS
    Продолжительность : 2 ч. 10 м.
    Вид битрейта : Переменный
    Битрейт : Неизвестно / 1509 Кбит/сек
    Каналы : 6 каналов
    Расположение каналов : Front: L C R, Side: L R, LFE
    Частота : 48,0 КГц
    Битовая глубина : 24 бит
    Метод сжатия : Без потерь / Lossy
    Язык : English
    Default : Нет
    Forced : Нет

    Текст
    Идентификатор : 5
    Формат : UTF-8
    Идентификатор кодека : S_TEXT/UTF8
    Идентификатор кодека/Информация : UTF-8 Plain Text
    Default : Нет
    Forced : Нет

    Меню
    00:00:00.000 : en:00:00:00.000
    00:08:04.609 : en:00:08:04.609
    00:15:02.360 : en:00:15:02.360
    00:22:18.379 : en:00:22:18.379
    00:29:46.034 : en:00:29:46.034
    00:38:43.071 : en:00:38:43.071
    00:44:12.859 : en:00:44:12.859
    00:49:45.232 : en:00:49:45.232
    00:59:47.667 : en:00:59:47.667
    01:06:47.295 : en:01:06:47.295
    01:15:36.866 : en:01:15:36.866
    01:22:36.034 : en:01:22:36.034
    01:30:04.149 : en:01:30:04.149
    01:37:07.572 : en:01:37:07.572
    01:46:02.189 : en:01:46:02.189
    01:54:13.013 : en:01:54:13.013


    Скриншоты для ознакомления







    Релиз подготовил: Сборка:
    Залил: ollan
    Размер скачиваемого торрента: 26.79 GB (28770286090 Bytes)

    Орудия смерти: Город костей / The Mortal Instruments: City of Bones (2013) BDRemux 1080p от ExKinoRay | US-Transfer | iTunes Russian, P торрент скачать бесплатно
    загрузка...
    Рейтинг →
     (голосов: 1, оценка 5/5, голосовать можно 1 раз )

    Другие торренты по теме:

  • Орудия смерти: Город костей / The Mortal Instruments: City of Bones (2013) HD 1080p | Трейлер
  • Орудия смерти: Город костей / The Mortal Instruments: City of Bones (2013) CAMRip скачать через торрент бесплатно
  • OST - Орудия смерти: Город костей / The Mortal Instruments: City of Bones (2013) MP3 скачать через торрент бесплатно
  • Орудия смерти: Город костей / The Mortal Instruments: City of Bones (2013) HDRip | Звук с CAMRip
  • Орудия смерти: Город костей / The Mortal Instruments: City of Bones (2013) DVDRip | Звук с CAMRip
  • Орудия смерти: Город костей / The Mortal Instruments: City of Bones (2013) WEB-DL 1080p | Звук с CAMRip
  • Орудия смерти: Город костей / The Mortal Instruments: City of Bones (2013) BDRip от Rulya74 скачать через торрент бесплатно
  • Орудия смерти: Город костей / The Mortal Instruments: City of Bones (2013) BDRip-AVC | P скачать через торрент бесплатно


    • Комментарии (0):

      Информация

      Информация

        Посетители, находящиеся в группе Гости, не могут оставлять комментарии в данной новости.

        ↓ Меню



        ↓ Опрос

        А Вы добавили сайт в закладки?
        Да
        Не


        Top 10 за месяц (Фильмы)