.
Авторизация | Регистрация
Хочешь лучшие торренты? Добавь свой email!
Добавить
» » Телефонная будка / Phone booth (2002) BDRip-AVC | D торрент скачать бесплатно




    Телефонная будка / Phone booth (2002) BDRip-AVC | D торрент скачать бесплатно

    Опубликовал: Админ | Дата: 27-02-2015, 11:09 | Просмотров: 294



    Телефонная будка / Phone Booth

    Слоган: Линия жизни на линии огня

    Создали в: 2002 г.
    Создали в: США
    Категория жанра: триллер, детектив
    Время просмотра: 01:21:00

    Перевод текста: Профессиональный (полное дублирование)
    Оригинальный аудиопоток: Aнглийский
    Субтитры: Русские, английские

    Главный режиссер: Джоэл Шумахер / Joel Schumacher

    Актеры: Колин Фаррелл, Кифер Сазерленд, Форест Уитейкер, Рада Митчел, Кэти Холмс, Паула Джей Паркер, Ариан Варинг Эш, Тиа Тексада, Джон Инос III, Ричард Т. Джонс, Джеймс МакДональд, Джош Пэйс, Йорго Константин

    Сюжет:
    Один телефонный звонок может изменить всю жизнь человека или даже оборвать ее. Герой фильма Стью Шеферд становится пленником телефонной будки.
    Что вы сделаете, если услышите, как в телефонной будке зазвонил телефон? Скорее всего, инстинктивно поднимете трубку, хотя прекрасно знаете, что кто-то просто ошибся номером. Вот и Стью кажется, что на звонок надо обязательно ответить, а в результате он оказывается втянутым в чудовищную игру. Только положи трубку, и ты — труп, — говорит ему невидимый собеседник.


    Качество фильма: BDRip-AVC
    Тип видео: MKV
    Информация о видео: 1024x432, 23.976fps, 1799 Kbps, 0.170 bit/pixel
    Информация о звуке: AC3, 48.0 KHz, 6 ch, 384 Kbps - Rus / Eng

    MediaInfo
    Format : Matroska
    Format version : Version 2
    File size : 1.45 GiB
    Duration : 1h 21mn
    Overall bit rate : 2 569 Kbps
    Encoded date : UTC 2012-11-22 22:36:45
    Writing application : mkvmerge v4.9.1 (;Ich will;) сборка от Aug 10 2011 09:31:20
    Writing library : libebml v1.2.1 libmatroska v1.2.0

    Video
    ID : 1
    Format : AVC
    Format/Info : Advanced Video Codec
    Format profile : High@L4.1
    Format settings, CABAC : Yes
    Format settings, ReFrames : 14 frames
    Codec ID : V_MPEG4/ISO/AVC
    Duration : 1h 21mn
    Bit rate : 1 799 Kbps
    Width : 1 024 pixels
    Height : 432 pixels
    Display aspect ratio : 2.40:1
    Frame rate : 23.976 fps
    Color space : YUV
    Chroma subsampling : 4:2:0
    Bit depth : 8 bits
    Scan type : Progressive
    Bits/(Pixel*Frame) : 0.170
    Stream size : 1 014 MiB (68%)
    Title : JRG
    Writing library : x264 core 125 r2200 999b753
    Encoding settings : cabac=1 / ref=14 / deblock=1:-1:-1 / analyse=0x3:0x133 / me=umh / subme=11 / psy=1 / psy_rd=1.00:0.10 / mixed_ref=1 / me_range=64 / chroma_me=1 / trellis=2 / 8x8dct=1 / cqm=0 / deadzone=21,11 / fast_pskip=0 / chroma_qp_offset=-3 / threads=26 / lookahead_threads=6 / sliced_threads=0 / nr=0 / decimate=1 / interlaced=0 / bluray_compat=0 / constrained_intra=0 / bframes=8 / b_pyramid=2 / b_adapt=2 / b_bias=0 / direct=3 / weightb=1 / open_gop=0 / weightp=2 / keyint=250 / keyint_min=23 / scenecut=40 / intra_refresh=0 / rc_lookahead=50 / rc=2pass / mbtree=1 / bitrate=1799 / ratetol=1.0 / qcomp=0.60 / qpmin=0 / qpmax=69 / qpstep=4 / cplxblur=20.0 / qblur=0.5 / ip_ratio=1.40 / aq=1:1.00
    Language : English
    Default : Yes
    Forced : No

    Audio #1
    ID : 2
    Format : AC-3
    Format/Info : Audio Coding 3
    Mode extension : CM (complete main)
    Format settings, Endianness : Big
    Codec ID : A_AC3
    Duration : 1h 21mn
    Bit rate mode : Constant
    Bit rate : 384 Kbps
    Channel(s) : 6 channels
    Channel positions : Front: L C R, Side: L R, LFE
    Sampling rate : 48.0 KHz
    Bit depth : 16 bits
    Compression mode : Lossy
    Stream size : 222 MiB (15%)
    Language : Russian
    Default : Yes
    Forced : No

    Audio #2
    ID : 3
    Format : AC-3
    Format/Info : Audio Coding 3
    Mode extension : CM (complete main)
    Format settings, Endianness : Big
    Codec ID : A_AC3
    Duration : 1h 21mn
    Bit rate mode : Constant
    Bit rate : 384 Kbps
    Channel(s) : 6 channels
    Channel positions : Front: L C R, Side: L R, LFE
    Sampling rate : 48.0 KHz
    Bit depth : 16 bits
    Compression mode : Lossy
    Stream size : 222 MiB (15%)
    Language : English
    Default : No
    Forced : No

    Text #1
    ID : 4
    Format : UTF-8
    Codec ID : S_TEXT/UTF8
    Codec ID/Info : UTF-8 Plain Text
    Language : Russian
    Default : Yes
    Forced : No

    Text #2
    ID : 5
    Format : UTF-8
    Codec ID : S_TEXT/UTF8
    Codec ID/Info : UTF-8 Plain Text
    Language : English
    Default : No
    Forced : No


    Размер скачиваемого торрента: 1.45 GB (1560678144 Bytes)

    Телефонная будка / Phone booth (2002) BDRip-AVC | D торрент скачать бесплатно
    загрузка...
    Рейтинг →
     (голосов: 1, оценка 4/5, голосовать можно 1 раз )

    Другие торренты по теме:

  • Телефонная будка / Phone booth (2002) HDRip-AVC
  • Телефонная будка / Phone Booth (2002) BDRip 720p | D скачать через торрент бесплатно
  • Телефонная будка / Phone Booth (2002) BDRip 720p от ivandubskoj | D, P, A


    • Комментарии (0):

      Информация

      Информация

        Посетители, находящиеся в группе Гости, не могут оставлять комментарии в данной новости.

        ↓ Меню



        ↓ Опрос

        А Вы добавили сайт в закладки?
        Да
        Не


        Top 10 за месяц (Фильмы)