.
Авторизация | Регистрация
Хочешь лучшие торренты? Добавь свой email!
Добавить
» » Страсти Дон Жуана / Don Jon (2013) DVDRip от New-Team | D | лицензия скачать через торрент бесплатно




    Страсти Дон Жуана / Don Jon (2013) DVDRip от New-Team | D | лицензия скачать через торрент бесплатно

    Опубликовал: Админ | Дата: 27-02-2015, 11:09 | Просмотров: 286

    В этой жизни меня заботит всего несколько вещей: мое тело, мой дом, моя тачка, мои друзья, мои телки и… порнуха



    Снималось в: США / HitRecord Films, Ram Bergman Productions, Voltage Pictures
    Категория жанра: комедия, мелодрама
    Создали в: 2013
    Время просмотра: 01:26:07

    Перевод текста: Профессиональный (дублированный)
    Субтитры подготовлены: нет
    Оригинальная аудиодорожка: нет

    Главный режиссер: Джозеф Гордон-Левитт / Joseph Gordon-Levitt

    Актеры: Джозеф Гордон-Левитт, Скарлетт Йоханссон, Джулианна Мур, Тони Данца, Гленн Хедли, Бри Ларсон, Роб Браун, Джереми Люк, Пол Бен-Виктор, Италиа Риччи...

    Роли дублировали: Сергей Смирнов, Татьяна Шитова, Елена Соловьева, Валерий Сторожик, Лариса Некипелова...

    Сюжет: У Джона Мартелло всё подчинено жесткому порядку: его квартира, его машина, его семья, его фитнес, его женщины. Каждые выходные он ходит к мессе, каясь в одних и тех же грехах. И всё равно, никакая близость несравнима для него с трансцендентным блаженством, которого он достигает в одиночестве перед компьютером, смотря порнографию. Он искренне пытается измениться ради той, что кажется ему любовью всей его жизни, но терпит одно крушение за другим, получая урок жизни и любви, на которую, ему казалось, он уже не способен.



    Качество фильма: DVDRip / DVD5 R5
    Тип видео: AVI

    Информация о видео: 720x304 (2.35:1), 25.000 fps, XVID ~1072 kbps avg, 0.196 bit/pixel
    Информация о звуке: Русский 48 kHz, МР3, 2 ch, 128.00 kbps Constant

    Раздача от:
    MediaInfo

    Общее
    Полное имя : Strasti.Don.Juana.2013.D.DVDRip.745MB_New-Team_by_avproh.avi
    Формат : AVI
    Формат/Информация : Audio Video Interleave
    Размер файла : 745 Мбайт
    Продолжительность : 1 ч. 26 м.
    Общий поток : 1209 Кбит/сек
    Программа кодирования : VirtualDubMod 1.5.10.3 | www.virtualdub-fr.org || (build 2550/release)
    Библиотека кодирования : VirtualDubMod build 2550/release

    Видео
    Идентификатор : 0
    Формат : MPEG-4 Visual
    Профиль формата : Advanced Simple@L5
    Параметр BVOP формата : 1
    Параметр QPel формата : Нет
    Параметр GMC формата : Без точки перехода
    Параметр матрицы формата : Выборочная
    Идентификатор кодека : XVID
    Идентификатор кодека/Подсказка : XviD
    Продолжительность : 1 ч. 26 м.
    Битрейт : 1072 Кбит/сек
    Ширина : 720 пикселей
    Высота : 304 пикселя
    Соотношение сторон : 2,35:1
    Частота кадров : 25,000 кадров/сек
    Цветовое пространство : YUV
    Субдискретизация насыщенности : 4:2:0
    Битовая глубина : 8 бит
    Тип развёртки : Прогрессивная
    Метод сжатия : С потерями
    Бит/(Пиксели*Кадры) : 0.196
    Размер потока : 660 Мбайт (89%)
    Библиотека кодирования : XviD 73

    Аудио
    Идентификатор : 1
    Формат : MPEG Audio
    Версия формата : Version 1
    Профиль формата : Layer 3
    Идентификатор кодека : 55
    Идентификатор кодека/Подсказка : MP3
    Продолжительность : 1 ч. 26 м.
    Вид битрейта : Постоянный
    Битрейт : 128 Кбит/сек
    Каналы : 2 канала
    Частота : 48,0 КГц
    Метод сжатия : С потерями
    Размер потока : 78,8 Мбайт (11%)
    Выравнивание : Соединение по промежуткам
    Продолжительность промежутка : 40 мс. (1,00 видеокадр)
    Время предзагрузки промежутка : 504 мс.

    Скриншоты для ознакомления:



    Залил: avproh
    Размер скачиваемого торрента: 744.94 MB (781125632 Bytes)

    Страсти Дон Жуана / Don Jon (2013) DVDRip от New-Team | D | лицензия скачать через торрент бесплатно
    загрузка...
    Рейтинг →
     (голосов: 1, оценка 4/5, голосовать можно 1 раз )

    Другие торренты по теме:

  • Страсти Дон Жуана / Don Jon (2013) DVDRip | Лицензия
  • Страсти Дон Жуана / Don Jon (2013) DVDRip-AVC от New-Team | D | лицензия скачать через торрент бесплатно
  • Страсти Дон Жуана / Don Jon (2013) DVD5 R5 от New-Team | D | лицензия скачать через торрент бесплатно
  • Страсти Дон Жуана / Don Jon (2013) DVDRip от Scarabey | D | Лицензия скачать через торрент бесплатно
  • Страсти Дон Жуана / Don Jon (2013) BDRip-AVC | Лицензия скачать через торрент бесплатно
  • Страсти Дон Жуана / Don Jon (2013) BDRip 720p | D | Лицензия скачать через торрент бесплатно
  • Страсти Дон Жуана / Don Jon (2013) BDRip 1080p | D | Лицензия скачать через торрент бесплатно
  • Страсти Дон Жуана / Don Jon (2013) HDRip-AVC от Aybek.B | D


    • Комментарии (0):

      Информация

      Информация

        Посетители, находящиеся в группе Гости, не могут оставлять комментарии в данной новости.

        ↓ Меню



        ↓ Опрос

        А Вы добавили сайт в закладки?
        Да
        Не


        Top 10 за месяц (Фильмы)