.
Авторизация | Регистрация
Хочешь лучшие торренты? Добавь свой email!
Добавить
» » Росомаха: Бессмертный / The Wolverine (2013) BDRip 1080p | EXTENDED | Лицензия скачать через торрент бесплатно




    Росомаха: Бессмертный / The Wolverine (2013) BDRip 1080p | EXTENDED | Лицензия скачать через торрент бесплатно

    Опубликовал: Админ | Дата: 27-02-2015, 11:09 | Просмотров: 739



    Детально о кино
    Русское название: Росомаха: Бессмертный
    Русское название в мировом прокате: The Wolverine
    Создали в: 2013
    Категория жанра: Фантастика, фэнтези, боевик, приключения
    Снималось в: США, 20th Century Fox Film Corporation, Big Screen Productions, Donners; Company, Dune Entertainment
    Главный режиссер: Джеймс Мэнголд
    Актеры: Хью Джекман, Фамке Янссен, Брайан Ти, Уилл Юн Ли, Светлана Ходченкова, Хироюки Санада, Тао Окамото, Рила Фукусима, Джеймс Фрайзер, Харукико Яманоути

    Сюжет фильма: Новая глава приключений Росомахи развернётся в Японии, где Логану предстоит выяснить, что острее — когти Росомахи или меч Серебряного Самурая.



    Файл
    Качество фильма: BDRip (1080p)
    Информация о видео: MPEG-4 AVC, 11.2 Мбит/с, 1920x798
    Информация о звуке: Русский (AC3, 6 ch, 448 Кбит/с), (DTS, 6 ch, 768 Кбит/с), английский (DTS, 6 ch, 1510 Кбит/с), (AC3, 2 ch, 224 Кбит/с)
    Размер скачиваемого торрента: 13.9 ГБ
    Время просмотра: 02:18:14
    Перевод текста: Дублированный лицензия
    Субтитры: Русские, английские, украинские
    Форс сабы отдельно
    MI
    Общее
    Уникальный идентификатор : 204963409549268624491603766962923589487 (0x9A32844CB5211A4F8904DDBB9EF94F6F)
    Полное имя : D:The.Wolverine.2013.Extended.1080p.BluRay.DTS.x264-NTb.mkv
    Формат : Matroska
    Версия формата : Version 2
    Размер файла : 13,9 Гбайт
    Продолжительность : 2 ч. 18 м.
    Общий поток : 14,4 Мбит/сек
    Дата кодирования : UTC 2013-11-19 21:07:45
    Программа кодирования : mkvmerge v6.3.0 (;You can;t stop me!;) built on Jun 28 2013 20:09:41
    Библиотека кодирования : libebml v1.3.0 libmatroska v1.4.0

    Видео
    Идентификатор : 1
    Формат : AVC
    Формат/Информация : Advanced Video Codec
    Профиль формата : High@L4.0
    Параметр CABAC формата : Да
    Параметр ReFrames формата : 5 кадров
    Идентификатор кодека : V_MPEG4/ISO/AVC
    Продолжительность : 2 ч. 18 м.
    Битрейт : 11,2 Мбит/сек
    Ширина : 1920 пикселей
    Высота : 798 пикселей
    Соотношение сторон : 2,40:1
    Режим частоты кадров : Постоянный
    Частота кадров : 23,976 кадра/сек
    Цветовое пространство : YUV
    Субдискретизация насыщенности : 4:2:0
    Битовая глубина : 8 бит
    Тип развёртки : Прогрессивная
    Бит/(Пиксели*Кадры) : 0.304
    Размер потока : 10,8 Гбайт (78%)
    Библиотека кодирования : x264 core 140 r2377kMod 1ca7bb9
    Настройки программы : cabac=1 / ref=5 / deblock=1:-3:-3 / analyse=0x3:0x133 / me=umh / subme=10 / psy=1 / fade_compensate=0.00 / psy_rd=1.07:0.00 / mixed_ref=1 / me_range=48 / chroma_me=1 / trellis=2 / 8x8dct=1 / cqm=0 / deadzone=21,11 / fast_pskip=0 / chroma_qp_offset=-2 / threads=12 / lookahead_threads=2 / sliced_threads=0 / nr=0 / decimate=1 / interlaced=0 / bluray_compat=0 / constrained_intra=0 / fgo=0 / bframes=7 / b_pyramid=2 / b_adapt=2 / b_bias=0 / direct=3 / weightb=1 / open_gop=0 / weightp=2 / keyint=250 / keyint_min=23 / scenecut=40 / intra_refresh=0 / rc=crf / mbtree=0 / crf=16.5000 / qcomp=0.60 / qpmin=0 / qpmax=69 / qpstep=4 / ip_ratio=1.30 / pb_ratio=1.20 / aq=1:0.85
    Язык : English
    Default : Да
    Forced : Нет

    Аудио #1
    Идентификатор : 2
    Формат : DTS
    Формат/Информация : Digital Theater Systems
    Режим : 16
    Параметр Endianness формата : Big
    Идентификатор кодека : A_DTS
    Продолжительность : 2 ч. 18 м.
    Вид битрейта : Постоянный
    Битрейт : 768 Кбит/сек
    Каналы : 6 каналов
    Расположение каналов : Front: L C R, Side: L R, LFE
    Частота : 48,0 КГц
    Битовая глубина : 24 бит
    Метод сжатия : С потерями
    Размер потока : 759 Мбайт (5%)
    Язык : Russian
    Default : Да
    Forced : Нет

    Аудио #2
    Идентификатор : 3
    Формат : AC-3
    Формат/Информация : Audio Coding 3
    Расширение режима : CM (complete main)
    Параметр Endianness формата : Big
    Идентификатор кодека : A_AC3
    Продолжительность : 2 ч. 18 м.
    Вид битрейта : Постоянный
    Битрейт : 448 Кбит/сек
    Каналы : 6 каналов
    Расположение каналов : Front: L C R, Side: L R, LFE
    Частота : 48,0 КГц
    Битовая глубина : 16 бит
    Метод сжатия : С потерями
    Размер потока : 443 Мбайт (3%)
    Язык : Russian
    Default : Нет
    Forced : Нет

    Аудио #3
    Идентификатор : 4
    Формат : DTS
    Формат/Информация : Digital Theater Systems
    Профиль формата : ES
    Режим : 16
    Параметр Endianness формата : Big
    Идентификатор кодека : A_DTS
    Продолжительность : 2 ч. 18 м.
    Вид битрейта : Постоянный
    Битрейт : 1509 Кбит/сек
    Каналы : 6 каналов
    Расположение каналов : Front: L C R, Side: L R, LFE
    Частота : 48,0 КГц
    Битовая глубина : 24 бит
    Метод сжатия : С потерями
    Размер потока : 1,46 Гбайт (10%)
    Язык : English
    Default : Нет
    Forced : Нет

    Аудио #4
    Идентификатор : 5
    Формат : AC-3
    Формат/Информация : Audio Coding 3
    Расширение режима : CM (complete main)
    Параметр Endianness формата : Big
    Идентификатор кодека : A_AC3
    Продолжительность : 2 ч. 18 м.
    Вид битрейта : Постоянный
    Битрейт : 224 Кбит/сек
    Каналы : 2 канала
    Расположение каналов : Front: L R
    Частота : 48,0 КГц
    Битовая глубина : 16 бит
    Метод сжатия : С потерями
    Размер потока : 221 Мбайт (2%)
    Заголовок : Director;s Commentary
    Язык : English
    Default : Нет
    Forced : Нет

    Текст #1
    Идентификатор : 6
    Формат : UTF-8
    Идентификатор кодека : S_TEXT/UTF8
    Идентификатор кодека/Информация : UTF-8 Plain Text
    Язык : Russian
    Default : Нет
    Forced : Нет

    Текст #2
    Идентификатор : 7
    Формат : UTF-8
    Идентификатор кодека : S_TEXT/UTF8
    Идентификатор кодека/Информация : UTF-8 Plain Text
    Язык : Russian
    Default : Нет
    Forced : Нет

    Текст #3
    Идентификатор : 8
    Формат : UTF-8
    Идентификатор кодека : S_TEXT/UTF8
    Идентификатор кодека/Информация : UTF-8 Plain Text
    Язык : Ukrainian
    Default : Нет
    Forced : Нет

    Текст #4
    Идентификатор : 9
    Формат : UTF-8
    Идентификатор кодека : S_TEXT/UTF8
    Идентификатор кодека/Информация : UTF-8 Plain Text
    Заголовок : Foreign Parts
    Язык : English
    Default : Нет
    Forced : Нет

    Текст #5
    Идентификатор : 10
    Формат : UTF-8
    Идентификатор кодека : S_TEXT/UTF8
    Идентификатор кодека/Информация : UTF-8 Plain Text
    Язык : English
    Default : Нет
    Forced : Нет

    Текст #6
    Идентификатор : 11
    Формат : UTF-8
    Идентификатор кодека : S_TEXT/UTF8
    Идентификатор кодека/Информация : UTF-8 Plain Text
    Заголовок : SDH
    Язык : English
    Default : Нет
    Forced : Нет

    Меню
    00:00:00.000 : en:00:00:00.000
    00:05:03.720 : en:00:05:03.720
    00:07:39.793 : en:00:07:39.793
    00:08:40.562 : en:00:08:40.562
    00:10:24.374 : en:00:10:24.374
    00:13:55.668 : en:00:13:55.668
    00:16:48.174 : en:00:16:48.174
    00:20:32.648 : en:00:20:32.648
    00:23:36.498 : en:00:23:36.498
    00:29:13.585 : en:00:29:13.585
    00:33:42.771 : en:00:33:42.771
    00:35:14.779 : en:00:35:14.779
    00:38:36.522 : en:00:38:36.522
    00:43:04.957 : en:00:43:04.957
    00:47:55.080 : en:00:47:55.080
    00:49:31.844 : en:00:49:31.844
    00:52:23.098 : en:00:52:23.098
    00:59:32.318 : en:00:59:32.318
    01:01:31.354 : en:01:01:31.354
    01:07:00.516 : en:01:07:00.516
    01:13:10.261 : en:01:13:10.261
    01:18:52.227 : en:01:18:52.227
    01:23:40.473 : en:01:23:40.473
    01:26:47.160 : en:01:26:47.160
    01:29:50.927 : en:01:29:50.927
    01:35:19.380 : en:01:35:19.380
    01:38:28.194 : en:01:38:28.194
    01:41:43.639 : en:01:41:43.639
    01:48:33.006 : en:01:48:33.006
    01:52:05.969 : en:01:52:05.969
    01:54:56.264 : en:01:54:56.264
    01:58:03.493 : en:01:58:03.493
    02:03:01.999 : en:02:03:01.999
    02:04:57.406 : en:02:04:57.406
    02:07:46.700 : en:02:07:46.700
    02:09:17.374 : en:02:09:17.374

    Скриншоты для ознакомления



    Размер скачиваемого торрента: 13.90 GB (14929452385 Bytes)

    Росомаха: Бессмертный / The Wolverine (2013) BDRip 1080p | EXTENDED | Лицензия скачать через торрент бесплатно
    загрузка...
    Рейтинг →
     (голосов: 1, оценка 4/5, голосовать можно 1 раз )

    Другие торренты по теме:

  • Росомаха: Бессмертный / The Wolverine (2013) HD 1080p | Трейлер
  • Росомаха: Бессмертный / The Wolverine (2013) TS
  • OST - Росомаха: Бессмертный / The Wolverine (2013) MP3
  • Росомаха: Бессмертный / The Wolverine (2013) WEBRip | Звук с TS скачать через торрент бесплатно
  • Росомаха: Бессмертный / The Wolverine (2013) DVDRip | Звук с TS скачать через торрент бесплатно
  • Росомаха: Бессмертный / The Wolverine (2013) HDRip | EXTENDED | Звук с TS
  • Росомаха: Бессмертный / The Wolverine (2013) HDRip-AVC | Расширенная версия | DL скачать через торрент бесплатно
  • Росомаха: Бессмертный / The Wolverine (2013) HDRip | Teatrical | BaibaKo от INTERCINEMA скачать через торрент бесплатно


    • Комментарии (0):

      Информация

      Информация

        Посетители, находящиеся в группе Гости, не могут оставлять комментарии в данной новости.

        ↓ Меню



        ↓ Опрос

        А Вы добавили сайт в закладки?
        Да
        Не


        Top 10 за месяц (Фильмы)