.
Авторизация | Регистрация
» » Одноклассники 2 / Grown Ups 2 (2013) BDRemux 1080p | Лицензия торрент скачать бесплатно




    Одноклассники 2 / Grown Ups 2 (2013) BDRemux 1080p | Лицензия торрент скачать бесплатно

    Опубликовал: Админ | Дата: 27-02-2015, 11:09 | Просмотров: 273



    Детально о кино
    Русское название: Одноклассники 2
    Русское название в мировом прокате: Grown Ups 2
    Создали в: 2013
    Категория жанра: Комедия
    Снималось в: США, Columbia Pictures, Happy Madison Productions, Sony Pictures Entertainment (SPE)
    Главный режиссер: Дэннис Дуган
    Актеры: Адам Сэндлер, Кевин Джеймс, Крис Рок, Дэвид Спейд, Сальма Хайек, Мария Белло, Майя Рудольф, Ник Свардсон, Стив Бушеми, Колин Куинн, Тим Медоуз, Тим Медоуз, Джон Ловиц, Шакил О`Нил, Александр Людвиг, Питер Данте, Оливер Хадсон, Стив Остин, Тэйлор Лотнер, Майло Вентимилья, Джэйк Голдберг, Камерон Бойс, Ада-Николь Сэнгер, Чайна Энн МакКлейн, Шери Отери, Эйприл Роуз

    Сюжет фильма: После того как Ленни Федер переезжает с семьей обратно в родной город, он и его друзья извлекут немало уроков, когда их дети окончат школу…



    Файл
    Качество фильма: Blu-Ray Remux (1080p)
    Информация о видео: MPEG-4 AVC, 27819 Кбит/с, 1920x1080
    Информация о звуке: Русский, украинский (AC3, 6 ch, 640 Кбит/с), английский (DTS-HD MA, 6 ch, 2180 Кбит/с)
    Размер скачиваемого торрента: 22.06 ГБ
    Время просмотра: 01:40:58
    Перевод текста: Дублированный лицензия / BD CEE
    Субтитры: Русские, английские

    MediaInfo
    Общее
    Уникальный идентификатор : 177934499446266872066457641079674614252 (0x85DCF024DA07651582081B9ED769B1EC)
    Полное имя : D:Grown Ups 2 2013 BluRay REMUX 1080p AVC DTS-HD MA5.1.mkv
    Формат : Matroska
    Версия формата : Version 2
    Размер файла : 22,1 Гбайт
    Продолжительность : 1 ч. 40 м.
    Режим общего битрейта : Переменный
    Общий поток : 31,3 Мбит/сек
    Дата кодирования : UTC 2013-11-21 17:30:29
    Программа кодирования : mkvmerge v6.3.0 (;You can;t stop me!;) built on Jun 28 2013 20:09:41
    Библиотека кодирования : libebml v1.3.0 libmatroska v1.4.0

    Видео
    Идентификатор : 1
    Формат : AVC
    Формат/Информация : Advanced Video Codec
    Профиль формата : High@L4.1
    Параметр CABAC формата : Да
    Параметр ReFrames формата : 2 кадра
    Идентификатор кодека : V_MPEG4/ISO/AVC
    Продолжительность : 1 ч. 40 м.
    Вид битрейта : Переменный
    Ширина : 1920 пикселей
    Высота : 1080 пикселей
    Соотношение сторон : 16:9
    Режим частоты кадров : Постоянный
    Частота кадров : 23,976 кадра/сек
    Цветовое пространство : YUV
    Субдискретизация насыщенности : 4:2:0
    Битовая глубина : 8 бит
    Тип развёртки : Прогрессивная
    Default : Да
    Forced : Нет

    Аудио #1
    Идентификатор : 2
    Формат : AC-3
    Формат/Информация : Audio Coding 3
    Расширение режима : CM (complete main)
    Параметр Endianness формата : Big
    Идентификатор кодека : A_AC3
    Продолжительность : 1 ч. 40 м.
    Вид битрейта : Постоянный
    Битрейт : 640 Кбит/сек
    Каналы : 6 каналов
    Расположение каналов : Front: L C R, Side: L R, LFE
    Частота : 48,0 КГц
    Битовая глубина : 16 бит
    Метод сжатия : С потерями
    Размер потока : 462 Мбайт (2%)
    Язык : Russian
    Default : Да
    Forced : Нет

    Аудио #2
    Идентификатор : 3
    Формат : AC-3
    Формат/Информация : Audio Coding 3
    Расширение режима : CM (complete main)
    Параметр Endianness формата : Big
    Идентификатор кодека : A_AC3
    Продолжительность : 1 ч. 40 м.
    Вид битрейта : Постоянный
    Битрейт : 640 Кбит/сек
    Каналы : 6 каналов
    Расположение каналов : Front: L C R, Side: L R, LFE
    Частота : 48,0 КГц
    Битовая глубина : 16 бит
    Метод сжатия : С потерями
    Размер потока : 462 Мбайт (2%)
    Язык : Ukrainian
    Default : Нет
    Forced : Нет

    Аудио #3
    Идентификатор : 4
    Формат : DTS
    Формат/Информация : Digital Theater Systems
    Профиль формата : MA / Core
    Режим : 16
    Параметр Endianness формата : Big
    Идентификатор кодека : A_DTS
    Продолжительность : 1 ч. 40 м.
    Вид битрейта : Переменный
    Битрейт : Неизвестно / 1509 Кбит/сек
    Каналы : 6 каналов
    Расположение каналов : Front: L C R, Side: L R, LFE
    Частота : 48,0 КГц
    Битовая глубина : 16 бит
    Метод сжатия : Без потерь / Lossy
    Язык : English
    Default : Нет
    Forced : Нет

    Текст #1
    Идентификатор : 5
    Формат : UTF-8
    Идентификатор кодека : S_TEXT/UTF8
    Идентификатор кодека/Информация : UTF-8 Plain Text
    Язык : Russian
    Default : Нет
    Forced : Нет

    Текст #2
    Идентификатор : 6
    Формат : UTF-8
    Идентификатор кодека : S_TEXT/UTF8
    Идентификатор кодека/Информация : UTF-8 Plain Text
    Язык : English
    Default : Нет
    Forced : Нет

    Меню
    00:00:00.000 : en:00:00:00.000
    00:04:30.937 : en:00:04:30.937
    00:12:02.555 : en:00:12:02.555
    00:18:14.676 : en:00:18:14.676
    00:25:34.157 : en:00:25:34.157
    00:29:47.660 : en:00:29:47.660
    00:37:02.386 : en:00:37:02.386
    00:45:15.712 : en:00:45:15.712
    00:48:53.430 : en:00:48:53.430
    00:54:22.592 : en:00:54:22.592
    01:00:49.937 : en:01:00:49.937
    01:05:15.661 : en:01:05:15.661
    01:10:52.414 : en:01:10:52.414
    01:16:49.354 : en:01:16:49.354
    01:23:26.793 : en:01:23:26.793
    01:31:02.665 : en:01:31:02.665


    Скриншоты для ознакомления



    Размер скачиваемого торрента: 22.06 GB (23689170350 Bytes)

    Одноклассники 2 / Grown Ups 2 (2013) BDRemux 1080p | Лицензия торрент скачать бесплатно
    загрузка...
    Рейтинг →
     (голосов: 1, оценка 4/5, голосовать можно 1 раз )

    Другие торренты по теме:



      Комментарии (0):

      Информация

      Информация

        Посетители, находящиеся в группе Гости, не могут оставлять комментарии в данной новости.

        ↓ Меню



        ↓ Опрос

        А Вы добавили сайт в закладки?
        Да
        Не


        Top 10 за неделю (Фильмы)