.
Авторизация | Регистрация
» » Под откос / Derailed (2002) BDRip 1080p by msltel | P2, A скачать через торрент бесплатно




    Под откос / Derailed (2002) BDRip 1080p by msltel | P2, A скачать через торрент бесплатно

    Опубликовал: Админ | Дата: 27-02-2015, 11:09 | Просмотров: 248



    Русское название: Под откос
    Русское название в мировом прокате: Derailed
    Создали в: 2002
    Категория жанра: Боевик, триллер
    Снималось в: США, Аруба, 777 Films Corporation, Halt Productions A.V.V., Millennium Films, Nu-Image Films
    Главный режиссер: Боб Мисиоровски
    Актеры: Жан-Клод Ван Дамм, Томас Арана, Лора Хэрринг, Сьюзэн Гибни, Люси Дженнер, Джессика Боуман, Кристофер Ван Варенберг, Джон Бишоп, Бинки ван Билдербик, Дэйтон Калли, Симона Левин, Сандра Видал, Стефанос Мильцакакис, Джимми Жан-Луи, Джордж Станчев, Николай Бинев, Станимир Стаматов, Данко Йорданов, Трайан Миленов-Трой, Эмиль Тонев, Велизар Пеев

    Сюжет фильма: Новое спецзадание по плечу гениальному оперативнику НАТО Жаку Кристофу. Он должен сопроводить из Словакии в Германию неуловимую воровку Галину, но он не подозревает, что эта рутинная работа станет самой опасной в его карьере. Уйдя от погони на узких улочках Братиславы, отчаянные шпионы садятся в поезд до Мюнхена и становятся заложниками банды террористов, чей вожак Мэйсон хочет любой ценой завладеть секретным грузом Галины - новым опаснейшим вирусом оспы. Вскоре Жак понимает, что от его решительных действий зависит не только жизнь пассажиров экспресса, но и судьба всего мира, который охватит страшная эпидемия, если он не обезвредит маньяка, жаждущего власти над миром.

    Качество фильма: BDRip 1080p
    Размер скачиваемого торрента: 15.73 ГБ
    Время просмотра: 01:28:39

    Информация о видео: MPEG-4 AVC, 19.0 Mбит/c, 1920x1080
    Информация о звуке 1: русский, 48 kHz, DTS, 6 ch, 1509 kbps avg, Профессиональный двухголосый, R5
    Информация о звуке 2: русский, 48 kHz, DTS, 6 ch, 1509 kbps avg, Авторский, Леонид Володарский
    Информация о звуке 3: английский, 48 kHz, DTS, 6 ch, 1509 kbps avg, Оригинал
    Субтитры 1: русские (вариант 1)
    Субтитры 2: русские (вариант 2)
    Субтитры 3: английские

    Внешние файлы
    Информация о звуке: русский, 48 kHz, AC3, 6 ch, 448 kbps avg, Профессиональный двухголосый, R5
    Информация о звуке: русский, 48 kHz, AC3, 6 ch, 448 kbps avg, Авторский, , Леонид Володарский
    Информация о звуке: английский, 48 kHz, AC3, 6 ch, 448 kbps avg, Оригинал

    Имеются неименованные главы/чаптеры.

    Исходник: igorella87 (Кинозал)

    Сравнение с исходником



    MediaInfo Лог х264
    Общее
    Полное имя : E:VideoPod.otkos.2002.x264.BDRip.1080pPod.otkos.2002.AVO.rus.Л.Володарский.ac3
    Формат : AC-3
    Формат/Информация : Audio Coding 3
    Размер файла : 284 Мбайт
    Продолжительность : 1 ч. 28 м.
    Режим общего битрейта : Постоянный
    Общий поток : 448 Кбит/сек

    Аудио
    Формат : AC-3
    Формат/Информация : Audio Coding 3
    Расширение режима : CM (complete main)
    Параметр Endianness формата : Big
    Продолжительность : 1 ч. 28 м.
    Вид битрейта : Постоянный
    Битрейт : 448 Кбит/сек
    Каналы : 6 каналов
    Расположение каналов : Front: L C R, Side: L R, LFE
    Частота : 48,0 КГц
    Битовая глубина : 16 бит
    Метод сжатия : С потерями
    Размер потока : 284 Мбайт (100%)

    Общее
    Полное имя : E:VideoPod.otkos.2002.x264.BDRip.1080pPod.otkos.2002.DVO.rus.R5.ac3
    Формат : AC-3
    Формат/Информация : Audio Coding 3
    Размер файла : 284 Мбайт
    Продолжительность : 1 ч. 28 м.
    Режим общего битрейта : Постоянный
    Общий поток : 448 Кбит/сек

    Аудио
    Формат : AC-3
    Формат/Информация : Audio Coding 3
    Расширение режима : CM (complete main)
    Параметр Endianness формата : Big
    Продолжительность : 1 ч. 28 м.
    Вид битрейта : Постоянный
    Битрейт : 448 Кбит/сек
    Каналы : 6 каналов
    Расположение каналов : Front: L C R, Side: L R, LFE
    Частота : 48,0 КГц
    Битовая глубина : 16 бит
    Метод сжатия : С потерями
    Размер потока : 284 Мбайт (100%)

    Общее
    Полное имя : E:VideoPod.otkos.2002.x264.BDRip.1080pPod.otkos.2002.Original.eng.ac3
    Формат : AC-3
    Формат/Информация : Audio Coding 3
    Размер файла : 284 Мбайт
    Продолжительность : 1 ч. 28 м.
    Режим общего битрейта : Постоянный
    Общий поток : 448 Кбит/сек

    Аудио
    Формат : AC-3
    Формат/Информация : Audio Coding 3
    Расширение режима : CM (complete main)
    Параметр Endianness формата : Big
    Продолжительность : 1 ч. 28 м.
    Вид битрейта : Постоянный
    Битрейт : 448 Кбит/сек
    Каналы : 6 каналов
    Расположение каналов : Front: L C R, Side: L R, LFE
    Частота : 48,0 КГц
    Битовая глубина : 16 бит
    Метод сжатия : С потерями
    Размер потока : 284 Мбайт (100%)

    Общее
    Уникальный идентификатор : 180826583198725094238485510781924205467 (0x8809EEE1C3407228AEF77D395DEEE39B)
    Полное имя : E:VideoPod.otkos.2002.x264.BDRip.1080pPod.otkos.2002.x264.BDRip.1080p.mkv
    Формат : Matroska
    Версия формата : Version 4 / Version 2
    Размер файла : 14,9 Гбайт
    Продолжительность : 1 ч. 28 м.
    Общий поток : 24,0 Мбит/сек
    Название фильма : Под откос / Derailed (2002) BDRip -- STarankov
    Дата кодирования : UTC 2013-11-22 04:52:27
    Программа кодирования : mkvmerge v6.4.1 (;Omega Point;) built on Sep 16 2013 22:05:10
    Библиотека кодирования : libebml v1.3.0 libmatroska v1.4.1

    Видео
    Идентификатор : 1
    Формат : AVC
    Формат/Информация : Advanced Video Codec
    Профиль формата : High@L4.1
    Параметр CABAC формата : Да
    Параметр ReFrames формата : 4 кадра
    Идентификатор кодека : V_MPEG4/ISO/AVC
    Продолжительность : 1 ч. 28 м.
    Битрейт : 19,0 Мбит/сек
    Ширина : 1920 пикселей
    Высота : 1080 пикселей
    Соотношение сторон : 16:9
    Режим частоты кадров : Постоянный
    Частота кадров : 23,976 кадра/сек
    Цветовое пространство : YUV
    Субдискретизация насыщенности : 4:2:0
    Битовая глубина : 8 бит
    Тип развёртки : Прогрессивная
    Бит/(Пиксели*Кадры) : 0.383
    Размер потока : 11,8 Гбайт (79%)
    Библиотека кодирования : x264 core 133 r2334 a3ac64b
    Залил: msltel
    Размер скачиваемого торрента: 15.73 GB (16885682831 Bytes)


    Под откос / Derailed (2002) BDRip 1080p by msltel | P2, A скачать через торрент бесплатно
    загрузка...
    Рейтинг →
     (голосов: 1, оценка 3/5, голосовать можно 1 раз )

    Другие торренты по теме:

  • Под откос / Derailed (2002) BDRemux 1080p | P2, A торрент скачать бесплатно
  • Под откос / Derailed (2002) BDRip 720p by msltel | P2, A торрент скачать бесплатно
  • Под откос / Derailed (2002) BDRip от HQCLUB скачать через торрент бесплатно
  • Под откос / Derailed / 2002 / ПД, АП (Володарский), СТ / Blu-Ray Remux (1080p) скачать торрент бесплатно


    • Комментарии (0):

      Информация

      Информация

        Посетители, находящиеся в группе Гости, не могут оставлять комментарии в данной новости.

        ↓ Меню



        ↓ Опрос

        А Вы добавили сайт в закладки?
        Да
        Не


        Top 10 за неделю (Фильмы)