.
Авторизация | Регистрация
Хочешь лучшие торренты? Добавь свой email!
Добавить
» » Мастер тай-цзи / Man of Tai Chi (2013) BDRip-AVC от MediaClub | P торрент скачать бесплатно




    Мастер тай-цзи / Man of Tai Chi (2013) BDRip-AVC от MediaClub | P торрент скачать бесплатно

    Опубликовал: Админ | Дата: 27-02-2015, 11:09 | Просмотров: 227



    Детально о кино
    Русское название: Мастер тай-цзи
    Русское название в мировом прокате: Man of Tai Chi
    Создали в: 2013
    Категория жанра: Боевик
    Главный режиссер: Киану Ривз
    Актеры: Киану Ривз, Ико Ювайс, Тайгер Ху Чен, Карен Мок, Джереми Меринас, Стивен Дасс, Майкл Чан, Брахим Ачаббаке, Хелен Леклерк, Оушен Хоу

    Сюжет фильма:
    Пекин. Амбициозный юноша Чэнь Линь-Ху по кличке Тигр подрабатывает скромным курьером, но после работы он превращается в молодую звезду боевых искусств, постепенно оттачивая свои навыки, следуя традициям Тайцзи Лин Кун. Обучившись размеренным и мирным движениям из Тайцзи, он приспособил их для бойцовских соревнований. Донака Марк, скрываясь от гонконгской полиции, попадает в другой столичный мегаполис, где царит неразбериха и хаос, и открывает там подпольный бойцовский клуб, в котором реальные деньги можно заработать, побеждая противников в поединках без правил, транслируемых в прямом эфире богатым клиентам. Подыскивая новую звезду, Донака пытается приманить Тигра обещанием лёгкого заработка. Вхождение в этот мир выявляет самую тёмную сторону Чэнь Линь-Ху, но ему необходимы наличные. Его навыки помогают ему на ринге, но сможет ли он, сражаясь, сохранить в себе чистоту и добропорядочность?



    Снималось в: США, Китай, Гонконг / China Film Group Corporation, Company Films, Dalian Wanda Group, Village Roadshow Pictures
    Время просмотра: 01:45:16
    Перевод текста: Профессиональный многоголосый (Baibako)

    Файл
    Кодек для видео: x264
    Качество фильма: BDRip-AVC
    Информация о видео: MPEG-4 AVC, 2199 Кбит/с, 1024x426, 23.976 кадр/с
    Информация о звуке: Русский, английский (AC3, 6 ch, 384 Кбит/с)
    Субтитры: Английские

    Семпл

    MI
    Format : Matroska
    Format version : Version 4 / Version 2
    File size : 2.18 GiB
    Duration : 1h 45mn
    Overall bit rate : 2 969 Kbps
    Movie name : -=MediaClub - Odessit=-
    Encoded date : UTC 2013-11-23 15:09:31
    Writing application : mkvmerge v6.2.0 (;Promised Land;) built on Apr 28 2013 12:22:01
    Writing library : libebml v1.3.0 libmatroska v1.4.0

    Video
    ID : 1
    Format : AVC
    Format/Info : Advanced Video Codec
    Format profile : High@L4.1
    Format settings, CABAC : Yes
    Format settings, ReFrames : 10 frames
    Codec ID : V_MPEG4/ISO/AVC
    Duration : 1h 45mn
    Bit rate : 2 199 Kbps
    Width : 1 024 pixels
    Height : 426 pixels
    Display aspect ratio : 2.40:1
    Frame rate : 23.976 fps
    Color space : YUV
    Chroma subsampling : 4:2:0
    Bit depth : 8 bits
    Scan type : Progressive
    Bits/(Pixel*Frame) : 0.210
    Stream size : 1.57 GiB (72%)
    Writing library : x264 core 130 r2273 b3065e6
    Encoding settings : cabac=1 / ref=10 / deblock=1:-3:-3 / analyse=0x3:0x133 / me=umh / subme=11 / psy=1 / psy_rd=1.00:0.20 / mixed_ref=1 / me_range=48 / chroma_me=1 / trellis=2 / 8x8dct=1 / cqm=0 / deadzone=21,11 / fast_pskip=0 / chroma_qp_offset=-3 / threads=6 / lookahead_threads=1 / sliced_threads=0 / nr=0 / decimate=0 / interlaced=0 / bluray_compat=0 / constrained_intra=0 / bframes=9 / b_pyramid=2 / b_adapt=2 / b_bias=0 / direct=3 / weightb=1 / open_gop=0 / weightp=2 / keyint=240 / keyint_min=23 / scenecut=40 / intra_refresh=0 / rc=2pass / mbtree=0 / bitrate=2199 / ratetol=1.0 / qcomp=0.60 / qpmin=0 / qpmax=69 / qpstep=4 / cplxblur=20.0 / qblur=0.5 / ip_ratio=1.40 / pb_ratio=1.30 / aq=1:1.00
    Language : English

    Audio #1
    ID : 2
    Format : AC-3
    Format/Info : Audio Coding 3
    Mode extension : CM (complete main)
    Codec ID : A_AC3
    Duration : 1h 45mn
    Bit rate mode : Constant
    Bit rate : 384 Kbps
    Channel(s) : 6 channels
    Channel positions : Front: L C R, Side: L R, LFE
    Sampling rate : 48.0 KHz
    Bit depth : 16 bits
    Compression mode : Lossy
    Stream size : 289 MiB (13%)
    Title : Профессиональный многоголосый (Baibako)
    Language : Russian

    Audio #2
    ID : 3
    Format : AC-3
    Format/Info : Audio Coding 3
    Mode extension : CM (complete main)
    Codec ID : A_AC3
    Duration : 1h 45mn
    Bit rate mode : Constant
    Bit rate : 384 Kbps
    Channel(s) : 6 channels
    Channel positions : Front: L C R, Side: L R, LFE
    Sampling rate : 48.0 KHz
    Bit depth : 16 bits
    Compression mode : Lossy
    Stream size : 289 MiB (13%)
    Language : English

    Text
    ID : 4
    Format : UTF-8
    Codec ID : S_TEXT/UTF8
    Codec ID/Info : UTF-8 Plain Text
    Language : English

    Menu
    00:00:00.000 : :Chapter 01
    00:04:07.664 : :Chapter 02
    00:09:17.181 : :Chapter 03
    00:15:33.390 : :Chapter 04
    00:20:25.557 : :Chapter 05
    00:27:11.296 : :Chapter 06
    00:33:31.175 : :Chapter 07
    00:39:35.956 : :Chapter 08
    00:46:23.989 : :Chapter 09
    00:54:39.985 : :Chapter 10
    01:02:01.342 : :Chapter 11
    01:10:25.221 : :Chapter 12
    01:16:37.926 : :Chapter 13
    01:20:23.652 : :Chapter 14
    01:27:12.477 : :Chapter 15
    01:37:58.247 : :Chapter 16
    01:45:14.516 : :Chapter 17

    Скриншоты для ознакомления


    Релиз подготовил: |
    Размер скачиваемого торрента: 2.18 GB (2343494848 Bytes)

    Мастер тай-цзи / Man of Tai Chi (2013) BDRip-AVC от MediaClub | P торрент скачать бесплатно
    загрузка...
    Рейтинг →
     (голосов: 1, оценка 5/5, голосовать можно 1 раз )

    Другие торренты по теме:

  • Мастер тай-чи / Мастер тай-цзи / Man of Tai Chi (2013) DVDScr от BTT-TEAM
  • Мастер тай-чи / Мастер тай-цзи / Man of Tai Chi (2013) WEB-DLRip | L1 скачать через торрент бесплатно
  • Мастер тай-чи / Мастер тай-цзи / Man of Tai Chi (2013) WEB-DLRip от BitTracker скачать через торрент бесплатно
  • Мастер тай-чи / Мастер тай-цзи / Man of Tai Chi (2013) WEB-DL 720p от MULTIBITS | P, L скачать через торрент бесплатно
  • Мастер тай-чи / Мастер тай-цзи / Man of Tai Chi (2013) HDRip от Scarabey
  • Мастер тай-чи / Мастер тай-цзи / Man of Tai Chi (2013) HDRip от Scarabey | D | iTunes
  • Мастер тай-цзи / Man of Tai Chi (2013) DVDScr | L1
  • Мастер тай-цзи / Man of Tai Chi (2013) HDTVRip | L1


    • Комментарии (0):

      Информация

      Информация

        Посетители, находящиеся в группе Гости, не могут оставлять комментарии в данной новости.

        ↓ Меню



        ↓ Опрос

        А Вы добавили сайт в закладки?
        Да
        Не


        Top 10 за месяц (Фильмы)