.
Авторизация | Регистрация
» » Элизиум: Рай не на Земле / Elysium (2013) WEB-DL 720p от BuR | R.G. FireBit-Films | iTunes торрент скачать бесплатно




    Элизиум: Рай не на Земле / Elysium (2013) WEB-DL 720p от BuR | R.G. FireBit-Films | iTunes торрент скачать бесплатно

    Опубликовал: Админ | Дата: 27-02-2015, 11:09 | Просмотров: 233



    Детально о кино
    Русское название: Элизиум: Рай не на Земле
    Русское название в мировом прокате: Elysium
    Создали в: 2013
    Категория жанра: фантастика, боевик, триллер, драма
    Главный режиссер: Нил Бломкамп
    Актеры: Мэтт Дэймон, Джоди Фостер, Брэндон Оре, Алиса Брага, Соня Брага, Хосе Пабло Кантильо, Шарлто Коупли, Клод Дюамель, Уильям Фихтнер, Эдриэн Холмс, Диего Луна, Майкл Мэндо, Вагнер Мора, Карли Поуп, Майкл Шэнкс, Талиса Сото, Фаран Тахир

    Сюжет фильма: В 2154 году существует два класса людей: очень богатые, живущие на чистой, созданной руками человека, космической станции под названием Элизиум и остальные, живущие на перенаселённой разрушенной Земле. Безжалостный правительственный чиновник, амбициозная министр обороны Делакур, не остановится ни перед чем для применения анти-иммиграционных законов и сохранения роскошного образа жизни граждан Элизиума. Когда неудачника Макса загоняют в угол, он соглашается взять на себя сложную миссию, которая в случае успеха не только спасёт ему жизнь, но и может привести к равенству этих поляризованных миров.



    Снималось в: США
    Время просмотра: 01:49:32
    Перевод текста: Профессиональный (полное дублирование) - iTunes

    Файл
    Качество фильма: WEB-DL 720p
    Тип видео: MKV
    Информация о видео: MPEG4/AVC, 4047 Кбит/сек, 1280x532 (2.40:1), 0.248 Бит/(Пиксели*Кадры)
    Информация о звуке 1: Rus, AC3, 384 Кбит/сек (6 ch)
    Информация о звуке 2: Eng, AC3, 192 Кбит/сек (2 ch)
    Субтитры: Русские (полные, форс), английские

    MediaInfo:
    Общее
    Уникальный идентификатор : 253341159571706729032500772815358298168 (0xBE97BB8782FAB3D2A2A333F408BA8838)
    Полное имя : Elizium (2013) WEB-DL.720p.mkv
    Формат : Matroska
    Версия формата : Version 2
    Размер файла : 3,61 Гбайт
    Продолжительность : 1 ч. 49 м.
    Общий поток : 4713 Кбит/сек
    Дата кодирования : UTC 2013-11-23 13:08:57
    Программа кодирования : mkvmerge v5.8.0 (;No Sleep / Pillow;) built on Sep 2 2012 15:37:04
    Библиотека кодирования : libebml v1.2.3 libmatroska v1.3.0

    Видео
    Идентификатор : 1
    Формат : AVC
    Формат/Информация : Advanced Video Codec
    Профиль формата : Main@L3.1
    Параметр CABAC формата : Нет
    Параметр ReFrames формата : 2 кадра
    Идентификатор кодека : V_MPEG4/ISO/AVC
    Продолжительность : 1 ч. 49 м.
    Битрейт : 4043 Кбит/сек
    Ширина : 1280 пикселей
    Высота : 532 пикселя
    Соотношение сторон : 2,40:1
    Режим частоты кадров : Постоянный
    Частота кадров : 23,976 кадра/сек
    Цветовое пространство : YUV
    Субдискретизация насыщенности : 4:2:0
    Битовая глубина : 8 бит
    Тип развёртки : Прогрессивная
    Бит/(Пиксели*Кадры) : 0.248
    Размер потока : 3,09 Гбайт (86%)
    Язык : English
    Default : Да
    Forced : Нет
    Основные цвета : BT.709
    Характеристики трансфера : BT.709
    Коэффициенты матрицы : BT.709

    Аудио #1
    Идентификатор : 2
    Формат : AC-3
    Формат/Информация : Audio Coding 3
    Расширение режима : CM (complete main)
    Параметр Endianness формата : Big
    Идентификатор кодека : A_AC3
    Продолжительность : 1 ч. 49 м.
    Вид битрейта : Постоянный
    Битрейт : 384 Кбит/сек
    Каналы : 6 каналов
    Расположение каналов : Front: L C R, Side: L R, LFE
    Частота : 48,0 КГц
    Битовая глубина : 16 бит
    Метод сжатия : С потерями
    Размер потока : 301 Мбайт (8%)
    Заголовок : RUS | iTunes
    Язык : Russian
    Default : Да
    Forced : Нет

    Аудио #2
    Идентификатор : 3
    Формат : AC-3
    Формат/Информация : Audio Coding 3
    Расширение режима : CM (complete main)
    Параметр Endianness формата : Big
    Идентификатор кодека : A_AC3
    Продолжительность : 1 ч. 49 м.
    Вид битрейта : Постоянный
    Битрейт : 192 Кбит/сек
    Каналы : 2 канала
    Расположение каналов : Front: L R
    Частота : 48,0 КГц
    Битовая глубина : 16 бит
    Метод сжатия : С потерями
    Размер потока : 150 Мбайт (4%)
    Заголовок : ENG
    Язык : English
    Default : Нет
    Forced : Нет

    Текст #1
    Идентификатор : 4
    Формат : UTF-8
    Идентификатор кодека : S_TEXT/UTF8
    Идентификатор кодека/Информация : UTF-8 Plain Text
    Заголовок : forced
    Язык : Russian
    Default : Да
    Forced : Нет

    Текст #2
    Идентификатор : 5
    Формат : UTF-8
    Идентификатор кодека : S_TEXT/UTF8
    Идентификатор кодека/Информация : UTF-8 Plain Text
    Заголовок : RUS
    Язык : Russian
    Default : Нет
    Forced : Нет

    Текст #3
    Идентификатор : 6
    Формат : UTF-8
    Идентификатор кодека : S_TEXT/UTF8
    Идентификатор кодека/Информация : UTF-8 Plain Text
    Заголовок : ENG
    Язык : English
    Default : Нет
    Forced : Нет

    Скриншоты для ознакомления:


    Релиз подготовил: Релиз группа:
    Размер скачиваемого торрента: 3.61 GB (3872179192 Bytes)

    Элизиум: Рай не на Земле / Elysium (2013) WEB-DL 720p от BuR | R.G. FireBit-Films | iTunes торрент скачать бесплатно
    загрузка...
    Рейтинг →
     (голосов: 1, оценка 3/5, голосовать можно 1 раз )

    Другие торренты по теме:

  • Элизиум: Рай не на Земле / Elysium (2013) CAMRip торрент скачать бесплатно
  • Элизиум: Рай не на Земле / Elysium (2013) CAMRip торрент скачать бесплатно
  • Элизиум: Рай не на Земле / Elysium (2013) CAMRip *PROPER* от INTERCINEMA торрент скачать бесплатно
  • Элизиум: Рай не на Земле / Elysium (2013) TS торрент скачать бесплатно
  • Элизиум: Рай не на Земле / Elysium (2013) TS *PROPER* от INTERCINEMA торрент скачать бесплатно
  • Элизиум: Рай не на Земле / Elysium (2013) DVDScreener торрент скачать бесплатно
  • Элизиум: Рай не на Земле / Elysium (2013) WEBRip торрент скачать бесплатно
  • Элизиум: Рай не на Земле / Elysium (2013) WEBRip от Один 777 скачать через торрент бесплатно


    • Комментарии (0):

      Информация

      Информация

        Посетители, находящиеся в группе Гости, не могут оставлять комментарии в данной новости.

        ↓ Меню



        ↓ Опрос

        А Вы добавили сайт в закладки?
        Да
        Не


        Top 10 за неделю (Фильмы)