.
Авторизация | Регистрация
Хочешь лучшие торренты? Добавь свой email!
Добавить
» » Анатомия страсти / Анатомия Грей / Greys Anatomy (2013) WEB-DL 720p | Sub торрент скачать бесплатно




    Анатомия страсти / Анатомия Грей / Greys Anatomy (2013) WEB-DL 720p | Sub торрент скачать бесплатно

    Опубликовал: Админ | Дата: 27-02-2015, 11:09 | Просмотров: 314

    Анатомия Грей / Анатомия Страсти / Grey;s Anatomy

    Создали в: 2013
    Снималось в: США
    Категория жанра: Драма
    Время просмотра: 00:44:00
    Перевод текста: Субтитры
    СубтитрыРусские (FanatoMy Team), Английские
    Главный режиссёр: Роб Корн
    Актеры: Эллен Помпео, Сандра О, Джастин Чэмберс, Патрик Дэмпси, Сара Рамирез, Джеймс Пикенс мл., Чэндра Уилсон, Кевин МакКидд, Джессика Кэпшоу и др.

    Сюжет:
    Продолжение знаменитой медицинской драмы о работе и личных отношениях хирургов сиэтлской больницы. Каждый день наполнен болью и счастьем, ссорами и примирениями, сложными дилеммами и необходимостью принять моментальное решение от которого зависит жизнь человека. В центре сюжета хирург - Мередит...

    Все раздачи сериала / Сэмпл

    Качество фильма: WEB-DL 720p
    Контейнер: MKV
    Информация о видео кодек: H.264
    Информация о звуке кодек: AC3
    Информация о видео: 1280x720 (16:9), 23.976 fps, ~4000 kbps, ~0.18 bit/pixel
    Информация о звуке: AC3, 48 kHz, 6 ch, ~384 kbps
    MediaInfo

    General
    Unique ID : 177416947889506943621634878545787133032 (0x857942E1D192F1B59AA93D65341C9C68)
    Complete name : D:DownloadsGrey;s Anatomy S10 WEB-DL 720pGreys.Anatomy.S10E01.Seal.Our.Fate.720p.WEB-DL.DD5.1.H.264-NTb.mkv
    Format : Matroska
    Format version : Version 4 / Version 2
    File size : 1.34 GiB
    Duration : 43mn 4s
    Overall bit rate : 4 458 Kbps
    Encoded date : UTC 2013-09-27 15:07:45
    Writing application : mkvmerge v6.4.1 (;Omega Point;) built on Sep 16 2013 22:05:10
    Writing library : libebml v1.3.0 libmatroska v1.4.1

    Video
    ID : 1
    Format : AVC
    Format/Info : Advanced Video Codec
    Format profile : High@L3.1
    Format settings, CABAC : No
    Format settings, ReFrames : 2 frames
    Codec ID : V_MPEG4/ISO/AVC
    Duration : 43mn 4s
    Bit rate : 3 985 Kbps
    Width : 1 280 pixels
    Height : 720 pixels
    Display aspect ratio : 16:9
    Frame rate mode : Constant
    Frame rate : 23.976 fps
    Color space : YUV
    Chroma subsampling : 4:2:0
    Bit depth : 8 bits
    Scan type : Progressive
    Bits/(Pixel*Frame) : 0.180
    Stream size : 1.20 GiB (89%)
    Language : English
    Default : Yes
    Forced : No
    Color primaries : BT.709
    Transfer characteristics : BT.709
    Matrix coefficients : BT.709

    Audio
    ID : 2
    Format : AC-3
    Format/Info : Audio Coding 3
    Mode extension : CM (complete main)
    Format settings, Endianness : Big
    Codec ID : A_AC3
    Duration : 43mn 4s
    Bit rate mode : Constant
    Bit rate : 384 Kbps
    Channel(s) : 6 channels
    Channel positions : Front: L C R, Side: L R, LFE
    Sampling rate : 48.0 KHz
    Bit depth : 16 bits
    Compression mode : Lossy
    Stream size : 118 MiB (9%)
    Language : English
    Default : Yes
    Forced : No

    Скриншоты для ознакомления



    Внимание! Раздача ведется путем добавления новых серий

    При каждом добавлении создаётся новый торрент. Чтобы начать закачку новой серии, необходимо сделать следующее:

    (1) остановить скачивание,
    (2) удалить старый торрент у себя из клиента (старые серии удалять не надо),
    (3) скачать новый торрент и запустить его в клиенте вместо старого, при этом указать клиенту путь в старую папку куда и должно происходить скачивание новых серий.

    Ваш клиент при этом должен произвести хеширование (проверку) старой папки (если не производит сам - помогите ему сделать это), и будет докачивать только те серии которых у вас ещё нет. Старые серии при этом не удаляются, а продолжают раздаваться! Eсли вы уже удалили старые серии, то предотвратить повторную закачку старых серий можно, отжав галочку в соответствующих местах при запуске нового торрента.

    Размер скачиваемого торрента: 13.48 GB (14478112044 Bytes)

    Анатомия страсти / Анатомия Грей / Greys Anatomy (2013) WEB-DL 720p | Sub торрент скачать бесплатно
    загрузка...
    Рейтинг →
     (голосов: 1, оценка 3/5, голосовать можно 1 раз )

    Другие торренты по теме:

  • Анатомия страсти / Анатомия Грей / Greys Anatomy (2012) WEB-DLRip 1080i | Кубик в Кубе
  • Анатомия страсти / Анатомия Грей / Greys Anatomy (2012) WEB-DLRip 720p | FOX Life
  • Анатомия страсти / Анатомия Грей / Greys Anatomy (2012) WEB-DLRip | FOX Life
  • Анатомия страсти / Анатомия Грей / Greys Anatomy (2012) WEB-DL 1080p | Sub
  • Анатомия страсти / Анатомия Грей / Greys Anatomy (2013) HDTVRip
  • Анатомия страсти / Анатомия Грей / Greys Anatomy (2012) WEB-DL 1080p
  • Анатомия страсти / Анатомия Грей / Greys Anatomy (2013) HDTVRip 720р скачать через торрент бесплатно
  • Анатомия страсти / Анатомия Грей / Greys Anatomy (2013) WEB-DLRip | Fox Life скачать через торрент бесплатно


    • Комментарии (0):

      Информация

      Информация

        Посетители, находящиеся в группе Гости, не могут оставлять комментарии в данной новости.

        ↓ Меню



        ↓ Опрос

        А Вы добавили сайт в закладки?
        Да
        Не


        Top 10 за месяц (Фильмы)