.
Авторизация | Регистрация
» » Шулер / Одесса-мама (2013) WEB-DLRip-AVC 1080p торрент скачать бесплатно




    Шулер / Одесса-мама (2013) WEB-DLRip-AVC 1080p торрент скачать бесплатно

    Опубликовал: Админ | Дата: 27-02-2015, 11:09 | Просмотров: 493


    Шулер (Одесса-мама)






    Создали в: 2013
    Снималось в: Россия, Украина, Star Media
    Категория жанра: Криминал, драма
    Время просмотра: 00:50:00
    Серия: 1-10
    Количество серий в сезон любимого сериалае: 10
    Перевод текста:НЕ ТРЕБУЕТСЯ
    Субтитры : отсутствуют




    Главный режиссер: : Эдуард Парри


    Актеры: Антон Феоктистов, Ольга Лерман, Сергей Сосновский, Алексей Ведерников (II), Алексей Горбунов, Сергей Алимпиев, Екатерина Волкова, Юлия Галкина, Владимир Карпов (III), Александр Робак, Александр Савенков, Алексей Смолка, Вадим Цаллати



    Дело происходит в Одессе в 1979 год. У Костика Волошина большие планы, он хочет удрать за кордон. У него двойная жизнь – должность научного сотрудника НИИ лишь прикрытие для шулерской деятельности, в которой Костик абсолютный профи. Спасаясь от карточника Гоги, которому он задолжал большую сумму денег, Костик едет в Одессу, откуда сам родом. Ему нужно заработать денег чтобы уехать из страны. Все аферы наш герой проворачивает под прикрытием Балабана, который крышует всю Одессу. Однако лучший друг и покровитель Балабан становится врагом номер один, когда Костик узнает, что именно он причастен к гибели его отца. А теперь Балабан еще и намерен выжить Костика из города, ведь у них на пути встала одна девушка по имени Майя. Костик решает заставить Балабана заплатить за смерть своего отца.


    Качество фильма : WEB-DLRip-AVC 1080p
    Тип видео: MPEG-4
    Информация о видео кодек: H264
    Информация о видео: 5221Кбит/сек,1920х1080(16.9),в 25.000кадр/сек,AVC(Baseline@L4.0)(1Ref Frames)
    Информация о звуке кодек: AAC
    Информация о звуке Russian Dolby Digital 5.1:288Кбит/сек,44.1КГц,6каналов,AAC,(Version4)


    Доп. информация:

    Звуковая дорожка сделана путем наложения чистого голоса озвучивателей на центральный канал оригинальной дорожки. Качество идентично звуковой дорожке.



    MediaInfo

    General
    Полное имя : D:С Е Р И А Л ЫШулер (Одесса-мама)SCHULER_2013_RUSRussia_DD5.1_x264_Nikolai.Baranov_WEB-DLRip-AVC_(1080p)SCHULER_2013_E01_RUSRussia_DD5.1_x264_Nikolai.Baranov_WEB-DLRip-AVC_(1080p).mp4
    Формат : MPEG-4
    Профиль формата : Base Media
    Идентификатор кодека : isom
    Размер файла : 1.89 GiB
    Продолжительность : 49mn 10s
    Режим общего битрейта : Variable
    Общий поток : 5 509 Kbps
    Дата кодирования : UTC 2013-11-20 06:36:49
    Дата пометки : UTC 2013-11-20 06:36:49
    Программа кодирования : Lavf51.12.1

    Video
    Идентификатор : 1
    Формат : AVC
    Формат/Информация : Advanced Video Codec
    Профиль формата : Baseline@L4.0
    Параметр CABAC формата : No
    Параметр ReFrames формата : 1 frame
    Параметр GOP формата : M=1, N=12
    Идентификатор кодека : avc1
    Идентификатор кодека/Информация : Advanced Video Coding
    Продолжительность : 49mn 9s
    Вид битрейта : Variable
    Битрейт : 5 221 Kbps
    Максимальный битрейт : 7 500 Kbps
    Ширина : 1 920 pixels
    Высота : 1 080 pixels
    Соотношение сторон : 16:9
    Режим частоты кадров : Constant
    Частота кадров : 25.000 fps
    Частота кадров в оригинале : 24.000 fps
    Цветовое пространство : YUV
    Субдискретизация насыщенности : 4:2:0
    Битовая глубина : 8 bits
    Тип развёртки : Progressive
    Бит/(Пиксели*Кадры) : 0.101
    Размер потока : 1.79 GiB (95%)
    Дата кодирования : UTC 2013-11-20 06:36:49
    Дата пометки : UTC 2013-11-20 06:36:49

    Audio
    Идентификатор : 2
    Формат : AAC
    Формат/Информация : Advanced Audio Codec
    Профиль формата : LC
    Идентификатор кодека : 40
    Продолжительность : 49mn 10s
    Вид битрейта : Variable
    Битрейт : 288 Kbps
    Каналы : 6 channels
    Расположение каналов : Front: L C R, Side: L R, LFE
    Частота : 44.1 KHz
    Метод сжатия : Lossy
    Размер потока : 99.9 MiB (5%)
    Дата кодирования : UTC 2013-11-20 06:36:49
    Дата пометки : UTC 2013-11-20 06:36:49



    Скриншоты для ознакомления









    Как закачать отдельный файл

    1. Открыть торрент
    2. Снять галки с тех файлов торрента, которые мы не хотим закачивать. Оставляем только на нужных нам файлах (файле).
    3. Нажать О.К.

    В клиенте utorrent

    Инструкция

    1) Открыть торрент


    2) Снять галки с тех файлов торрента, которые мы не хотим закачивать:

    * либо вручную, снимая с каждого файла галку( скрин №1)
    * либо, нажав кнопку Снять метки (Select None), сняв сразу со всех файлов(скрин №2)
    №1

    №2

    Оставляем только на нужных нам файлах (файле).

    3)Нажать О.К




    ПРИЯТНОГО ПРОСМОТРА .


    Релиз подготовил: Nikolai.Baranov









    Залил: NIKOLAI.BARANOV
    Размер скачиваемого торрента: 19.85 GB (21309211582 Bytes)

    Шулер / Одесса-мама (2013) WEB-DLRip-AVC 1080p торрент скачать бесплатно
    загрузка...
    Рейтинг →
     (голосов: 1, оценка 4/5, голосовать можно 1 раз )

    Другие торренты по теме:

  • Шулер / Одесса-мама (2013) WEB-DL 1080p от РиперАМ скачать через торрент бесплатно
  • Шулер / Одесса-мама (2013) WEB-DL 720p торрент скачать бесплатно
  • Шулер / Одесса-мама (2013) WEB-DLRip от 0дин 777 торрент скачать бесплатно
  • Шулер / Одесса-мама (2013) WEB-DLRip от Generalfilm | КПК торрент скачать бесплатно
  • Шулер / Одесса-мама (2013) WEB-DLRip от Generalfilm торрент скачать бесплатно
  • Шулер / Одесса-мама (2013) DVDRip от New-Team | лицензия торрент скачать бесплатно
  • Шулера / Rounders (1998) HDRip от Scarabey | P торрент скачать бесплатно
  • Шулера / Rounders (1998) BDRip 1080p | P, A, L1 торрент скачать бесплатно


    • Комментарии (0):

      Информация

      Информация

        Посетители, находящиеся в группе Гости, не могут оставлять комментарии в данной новости.

        ↓ Меню



        ↓ Опрос

        А Вы добавили сайт в закладки?
        Да
        Не


        Top 10 за неделю (Фильмы)