.
Авторизация | Регистрация
» » Русский Крестный отец / The Russian Godfather (1996) DVDRip | A торрент скачать бесплатно




    Русский Крестный отец / The Russian Godfather (1996) DVDRip | A торрент скачать бесплатно

    Опубликовал: Админ | Дата: 27-02-2015, 11:09 | Просмотров: 562

    Русский Крестный отец / The Russian Godfather



    Создали в: 1996
    Снималось в: США
    Категория жанра: Боевик
    Время просмотра: 01:28:51
    Перевод текста: Авторский (одноголосый закадровый) | Юрий Сербин

    Главный режиссер: Йорго Огненовски / Jorgo Ognenovski

    Актеры: Йорго Огненовски, Джефф Конуэй, Русс Рэссик, Ливэни, Нильс Стюарт, Драги Поповски, Герман Синицин, Ким Доусон, Кимберли Стивенс, Драгана Огненовски и другие.

    Сюжет: Банда беспредельщиков из бывшего Союза перебирается в Америку, где пацаны наводят ужас на Лос-Анджелес. Ограбления банков, наркотики, проституция, кровавые разборки на улицах — полиция ничего сделать с нашими интеллектуалами не может.

    Два крутых агента безопасности, русский и американец, должны нейтрализовать нашествие варваров на беззащитных американских обывателей. Семью русского офицера убивают, жену и дочь американца похищают и продают, но охотники на крестного отца русской мафии от этого только распалились.



    Качество фильма: DVDRip
    Тип видео: AVI
    Информация о видео кодек: XviD
    Информация о видео: 979 Кбит/сек, 512x384 (4:3), 25,000 кадров/сек
    Информация о звуке: MP3, 2 канала, 128 Кбит/сек, CBR, 48,0 КГц

    MediaInfo 0.7.64
    Общее
    Полное имя : D:moviesРусский Крестный отец.avi
    Формат : AVI
    Формат/Информация : Audio Video Interleave
    Размер файла : 704 Мбайт
    Продолжительность : 1 ч. 28 м.
    Общий поток : 1116 Кбит/сек
    Программа кодирования : VirtualDubModRus 1.5.10.2 (build 2542/release)
    Библиотека кодирования : VirtualDubMod build 2542/release

    Видео
    Идентификатор : 0
    Формат : MPEG-4 Visual
    Профиль формата : Advanced Simple@L5
    Параметр BVOP формата : 1
    Параметр QPel формата : Нет
    Параметр GMC формата : Без точки перехода
    Параметр матрицы формата : Выборочная
    Идентификатор кодека : XVID
    Идентификатор кодека/Подсказка : XviD
    Продолжительность : 1 ч. 28 м.
    Битрейт : 979 Кбит/сек
    Ширина : 512 пикселей
    Высота : 384 пикселя
    Соотношение сторон : 4:3
    Частота кадров : 25,000 кадров/сек
    Цветовое пространство : YUV
    Субдискретизация насыщенности : 4:2:0
    Битовая глубина : 8 бит
    Тип развёртки : Прогрессивная
    Метод сжатия : С потерями
    Бит/(Пиксели*Кадры) : 0.199
    Размер потока : 617 Мбайт (88%)
    Библиотека кодирования : XviD 1.2.0.dev47 (UTC 2006-11-01)

    Аудио
    Идентификатор : 1
    Формат : MPEG Audio
    Версия формата : Version 1
    Профиль формата : Layer 3
    Режим : Joint stereo
    Расширение режима : MS Stereo
    Идентификатор кодека : 55
    Идентификатор кодека/Подсказка : MP3
    Продолжительность : 1 ч. 28 м.
    Вид битрейта : Постоянный
    Битрейт : 128 Кбит/сек
    Каналы : 2 канала
    Частота : 48,0 КГц
    Метод сжатия : С потерями
    Размер потока : 80,7 Мбайт (11%)
    Выравнивание : Соединение по промежуткам
    Продолжительность промежутка : 40 мс. (1,00 видеокадр)
    Время предзагрузки промежутка : 504 мс.
    Язык : English
    Скриншоты для ознакомления



    Залил: nbdjod
    Размер скачиваемого торрента: 703.53 MB (737699840 Bytes)

    Русский Крестный отец / The Russian Godfather (1996) DVDRip | A торрент скачать бесплатно
    загрузка...
    Рейтинг →
     (голосов: 1, оценка 5/5, голосовать можно 1 раз )

    Другие торренты по теме:

  • Специальный проект. Новый год по-русски - Звездный Новый год (2012) SATRip торрент скачать бесплатно
  • Специальный проект. Новый год по-русски - Обратная сторона Нового Года (2012) SATRip торрент скачать бесплатно
  • Специальный проект. Новый год по-русски - Корпоратив по-русски (2012) SATRip торрент скачать бесплатно
  • Специальный проект. Новый год по-русски - Тайны Голубых огоньков (2012) SATRip торрент скачать бесплатно
  • VA - Русский Avto Club Новогодний Выпуск (2012) MP3 торрент скачать бесплатно
  • Сборник - Новогодняя диско ночь. Русский выпуск (2012) MP3 торрент скачать бесплатно
  • Кирилл Дорошенко - Lightroom 2-4 на русском языке. Обучающий видеокурс (2012) PCRec торрент скачать бесплатно
  • Русские народные сказки для самых маленьких (2007) MP3 торрент скачать бесплатно


    • Комментарии (0):

      Информация

      Информация

        Посетители, находящиеся в группе Гости, не могут оставлять комментарии в данной новости.

        ↓ Меню



        ↓ Опрос

        А Вы добавили сайт в закладки?
        Да
        Не


        Top 10 за неделю (Фильмы)