.
Авторизация | Регистрация
» » Идальго: Погоня в пустыне / Hidalgo (2004) BDRip от Leon-masl | A торрент скачать бесплатно




    Идальго: Погоня в пустыне / Hidalgo (2004) BDRip от Leon-masl | A торрент скачать бесплатно

    Опубликовал: Админ | Дата: 27-02-2015, 11:09 | Просмотров: 276



    Детально о кино
    Русское название: Идальго: Погоня в пустыне
    Русское название в мировом прокате: Hidalgo
    Создали в: 2004
    Категория жанра: Боевик, драма, приключения, вестерн
    Главный режиссер: Джо Джонстон
    Актеры: Вигго Мортенсен, Зулейха Робинсон, Омар Шариф, Луиза Ломбард, Адам Алекси-Маль, Саид Тагмауи, Сайлас Карсон, Харш Найяр, Дж.К. Симмонс, Адони Маропис, Виктор Тэлмадж, Питер Менса, Джошуа Вулф Коулмен, Фрэнки Мванги, Флойд ;Ред Кроу; Уэстермен, Элизабет Берридж, С. Томас Хауэлл, Стивен Римкус, Джерри Хардин, Фрэнк Коллисон, Крис Оуэн, Маршалл Манеш

    Сюжет фильма:
    В 1890 году богатый шейх впервые пригласил участвовать в соревнованиях иностранца. Им стал американец Фрэнк Хопкинс, лучший ковбой и наездник на всем Диком Западе. Влиятельный шейх поставил сумасшедшие деньги на победу иноземца. Теперь его судьба зависит от противостояния американского выскочки на мустанге по кличке Идальго и лучших арабских жеребцов, управляемых самыми искусными наездниками-бедуинами. И далеко не всех устраивает победа дерзкого янки в традиционном арабском дерби, ведь она может принести одним — славу, а другим — смерть. И для Фрэнка победа становится не только делом чести, но и единственной возможностью выжить в жарких песках бескрайней пустыни…



    Снималось в: США
    Киностудия: Casey Silver Productions, Dune Films, Hidalgo Productions Inc., Touchstone Pictures
    Время просмотра: 02:16:25
    Перевод текста: Авторский (одноголосый, закадровый) Ю.Сербин

    Файл
    Кодек для видео: XviD
    Качество фильма: BDRip
    Информация о видео: 720x304 , 23.976 fps, XviD build 50 ~1332kbps
    Информация о звуке: 48 kHz, AC3 Dolby Digital, 2/0 (L,R) ch, ~192.00 kbps
    MI
    Общее
    Полное имя : Hidalgo.2004.BDRip.avi
    Формат : AVI
    Формат/Информация : Audio Video Interleave
    Размер файла : 1,46 Гбайт
    Продолжительность : 2 ч. 16 м.
    Общий поток : 1533 Кбит/сек
    Программа кодирования : VirtualDubMod 1.5.10.3 | www.virtualdub-fr.org || (build 2550/release)
    Библиотека кодирования : VirtualDubMod build 2550/release

    Видео
    Идентификатор : 0
    Формат : MPEG-4 Visual
    Профиль формата : Advanced Simple@L5
    Параметр BVOP формата : 2
    Параметр QPel формата : Нет
    Параметр GMC формата : Без точки перехода
    Параметр матрицы формата : Выборочная
    Идентификатор кодека : XVID
    Идентификатор кодека/Подсказка : XviD
    Продолжительность : 2 ч. 16 м.
    Битрейт : 1332 Кбит/сек
    Ширина : 720 пикс.
    Высота : 304 пикс.
    Соотношение сторон : 2,35:1
    Частота кадров : 23,976 кадр/сек
    Цветовое пространство : YUV
    Подвыборка цветности : 4:2:0
    Битовая глубина : 8 бит
    Тип развёртки : Прогрессивная
    Метод сжатия : С потерями
    Бит/(Пиксели*Кадры) : 0.254
    Размер потока : 1,27 Гбайт (87%)
    Библиотека кодирования : XviD 1.2.1 (UTC 2008-12-04)

    Аудио
    Идентификатор : 1
    Формат : AC-3
    Формат/Информация : Audio Coding 3
    Расширение режима : CM (complete main)
    Идентификатор кодека : 2000
    Продолжительность : 2 ч. 16 м.
    Вид битрейта : Постоянный
    Битрейт : 192 Кбит/сек
    Канал(ы) : 2 канала(ов)
    Расположение каналов : Front: L R
    Частота : 48,0 КГц
    Битовая глубина : 16 бит
    Метод сжатия : С потерями
    Размер потока : 187 Мбайт (13%)
    Выравнивание : Разделение по промежуткам
    Продолжительность промежутка : 42 мс. (1,00 видеокадр)
    Время предзагрузки промежутка : 500 ms
    Скриншоты для ознакомления


    Релиз подготовил: Leon-masl
    Залил: leon-masl
    Размер скачиваемого торрента: 1.46 GB (1568749568 Bytes)

    Идальго: Погоня в пустыне / Hidalgo (2004) BDRip от Leon-masl | A торрент скачать бесплатно
    загрузка...
    Рейтинг →
     (голосов: 1, оценка 5/5, голосовать можно 1 раз )

    Другие торренты по теме:

  • Идальго: Погоня в Пустыне / Hidalgo (2004) BDRip 1080p торрент скачать бесплатно
  • Идальго: Погоня в пустыне / Hidalgo (2004) BDRip 1080p by msltel | D, A торрент скачать бесплатно
  • Идальго: Погоня в пустыне / Hidalgo (2004) BDRip-AVC от MediaClub | D, A скачать через торрент бесплатно
  • Идальго: Погоня в Пустыне / Hidalgo (2004) BDRip-AVC от HQCLUB | Лицензия торрент скачать бесплатно


    • Комментарии (0):

      Информация

      Информация

        Посетители, находящиеся в группе Гости, не могут оставлять комментарии в данной новости.

        ↓ Меню



        ↓ Опрос

        А Вы добавили сайт в закладки?
        Да
        Не


        Top 10 за неделю (Фильмы)