.
Авторизация | Регистрация
Хочешь лучшие торренты? Добавь свой email!
Добавить
» » Плохие мальчики / Bad Boys (1983) HDRip от AngelOfTrue | P торрент скачать бесплатно




    Плохие мальчики / Bad Boys (1983) HDRip от AngelOfTrue | P торрент скачать бесплатно

    Опубликовал: Админ | Дата: 27-02-2015, 11:09 | Просмотров: 436

    Плохие мальчики / Bad Boys (1983) HDRip
    Релиз подготовил AngelOfTrue




    In their world, if you;re 17 and still alive you;re a survivor

    Детально о кино:

    Русское название: Плохие мальчики
    Русское название в мировом прокате: Bad Boys
    Создали в: 1983
    Категория жанра: Триллер, Драма, Криминал
    Главный режиссёр: Рик Розенталь / Rick Rosenthal

    Актеры: Шон Пенн / Sean Penn (Mick O;Brien), Рени Сантони / Reni Santoni (Ramon Herrera), Джим Муди / Jim Moody (Gene Daniels), Эрик Гарри / Eric Gurry (Horowitz), Эсай Моралес / Esai Morales (Paco Moreno), Элли Шиди / Ally Sheedy (J. C. Walenski), Клэнси Браун / Clancy Brown (Viking Lofgren), Роберт Ли Раш / Robert Lee Rus (Tweety), Джон Зенда / John Zenda (Wagner), Алан Рак / Alan Ruck (Carl Brennan), Хорхе Ноа / Jorge Noa (Carlos), Рик Розенталь / Rick Rosenthal (в титрах: Richard L. Rosenthal) (Judge)

    Сюжет фильма:

    Предводители двух враждебных молодежных банд посажены в исправительную тюрьму для несовершеннолетних преступников. Взаимная ненависть и нарастающее давление заключенных, жаждущих крови, толкает их на смертельную схватку…



    Снималось в: США
    Время просмотра: 02:03:41
    Перевод текста: Русский профессиональный (многоголосый, закадровый / CP Digital)
    Субтитры: Отсутствуют

    Информация о файле:
    Качество фильма: HDRip | Исх. BDRip 1080p
    Файл: AVI
    Кодек для видео: XviD
    Информация о видео: 656 x 352, 1.864:1; 23.976 fps; ~ 707 kbps; 0.128 bit/pixel
    Информация о звуке: 48 kHz, MPEG Layer 3, 2.0 (L,R) ch, 128.00 kbps avg

    Размер скачиваемого торрента: 747 Mb (1/6 )

    Скриншоты для ознакомления











    MediaInfo
    Complete name : I:ФиРСЊРјС‹Plohie.Malchiki.1983.RUS.HDRip.XviD.MP3.-AngelOfTrue.avi
    Format : AVI
    Format/Info : Audio Video Interleave
    File size : 747 MiB
    Duration : 2h 3mn
    Overall bit rate : 845 Kbps
    Movie name : Plohie.Malchiki.1983.RUS.HDRip.XviD.MP3.-AngelOfTrue
    Director : AngelOfTrue
    Writing application : VirtualDubMod 1.5.10.3 | www.virtualdub-fr.org || (build 2550/release)

    Video
    ID : 0
    Format : MPEG-4 Visual
    Format profile : Advanced Simple@L5
    Format settings, BVOP : 1
    Format settings, QPel : No
    Format settings, GMC : No warppoints
    Format settings, Matrix : Custom
    Codec ID : XVID
    Codec ID/Hint : XviD
    Duration : 2h 3mn
    Bit rate : 707 Kbps
    Width : 656 pixels
    Height : 352 pixels
    Display aspect ratio : 1.864
    Frame rate : 23.976 fps
    Color space : YUV
    Chroma subsampling : 4:2:0
    Bit depth : 8 bits
    Scan type : Progressive
    Compression mode : Lossy
    Bits/(Pixel*Frame) : 0.128
    Stream size : 626 MiB (84%)
    Writing library : XviD 73

    Audio
    ID : 1
    Format : MPEG Audio
    Format version : Version 1
    Format profile : Layer 3
    Codec ID : 55
    Codec ID/Hint : MP3
    Duration : 2h 3mn
    Bit rate mode : Constant
    Bit rate : 128 Kbps
    Channel(s) : 2 channels
    Sampling rate : 48.0 KHz
    Compression mode : Lossy
    Stream size : 113 MiB (15%)
    Alignment : Aligned on interleaves
    Interleave, duration : 42 ms (1.00 video frame)
    Interleave, preload duration : 504 ms
    Writing library : LAME3.99r
    Encoding settings : -m s -V 4 -q 2 -lowpass 17 -b 128


    ПРИЯТНОГО ВАМ ПРОСМОТРА!
    Размер скачиваемого торрента: 747.35 MB (783656960 Bytes)

    Плохие мальчики / Bad Boys (1983) HDRip от AngelOfTrue | P торрент скачать бесплатно
    загрузка...
    Рейтинг →
     (голосов: 1, оценка 3/5, голосовать можно 1 раз )

    Другие торренты по теме:

  • Плохие мальчики / Bad Boys (1983) BDRip 1080p от Переулка Переводмана | P, A


    • Комментарии (0):

      Информация

      Информация

        Посетители, находящиеся в группе Гости, не могут оставлять комментарии в данной новости.

        ↓ Меню



        ↓ Опрос

        А Вы добавили сайт в закладки?
        Да
        Не


        Top 10 за месяц (Фильмы)