.
Авторизация | Регистрация
Хочешь лучшие торренты? Добавь свой email!
Добавить
» » 1 / 1 (2013) HDRip от Deadmauvlad | Baibako скачать через торрент бесплатно




    1 / 1 (2013) HDRip от Deadmauvlad | Baibako скачать через торрент бесплатно

    Опубликовал: Админ | Дата: 27-02-2015, 11:09 | Просмотров: 293



    Детально о кино
    Русское название: 1
    Русское название в мировом прокате: 1
    Создали в: 2013
    Категория жанра: триллер
    Главный режиссер: Дэннис Илиадис
    Актеры: Эшли Хиншоу, Риз Уэйкфилд, Натали Холл, Рода Гриффис, Логан Миллер, Марла Малкольм, Меган Хэйес, Ханна Касулка, Крисси Чэмберс, Кайт Джонсон

    Сюжет фильма: Трое друзей из колледжа отправляются на главную вечеринку десятилетия. Каждый ищет там что-то свое: любовь, секс или новые знакомства. Но праздник превращается в хаос, когда по соседству с домом, где все веселятся, падает метеорит.



    Снималось в: США / Cinetel Films
    Время просмотра: 01:36:12
    Тип перевода: Профессиональное (многоголосое) Baibako

    Файл
    Тип видео: AVI
    Качество фильма: HDRip
    Информация о видео: 688*288, 951 kb/ss
    Информация о звуке: MP3, 128kb/s (2 ch)

    Рип: Deadmauvlad

    Релиз подготовил

    MI
    Общее
    Полное имя : D:Рипы выкладка DeadmauvladPlus.1.2013.P.HDRip.Deadmauvlad.R.G Goldenshara.avi
    Формат : AVI
    Формат/Информация : Audio Video Interleave
    Размер файла : 749 Мбайт
    Продолжительность : 1 ч. 36 м.
    Общий поток : 1088 Кбит/сек
    Название фильма : Plus.1.2013.P.HDRip.Deadmauvlad
    Режиссёр : Deadmauvlad
    Жанр : триллер
    Программа кодирования : VirtualDubMod 1.5.10.3 | www.virtualdub-fr.org || (build 2550/release)
    Формат оригинала/Имя : Фильм
    Правообладатель : R.G GoldenShara

    Видео
    Идентификатор : 0
    Формат : MPEG-4 Visual
    Профиль формата : Advanced Simple@L5
    Параметр BVOP формата : 1
    Параметр QPel формата : Нет
    Параметр GMC формата : Без точки перехода
    Параметр матрицы формата : Default (MPEG)
    Идентификатор кодека : XVID
    Идентификатор кодека/Подсказка : XviD
    Продолжительность : 1 ч. 36 м.
    Битрейт : 951 Кбит/сек
    Ширина : 688 пикселей
    Высота : 288 пикселей
    Соотношение сторон : 2,40:1
    Частота кадров : 23,976 кадра/сек
    Цветовое пространство : YUV
    Субдискретизация насыщенности : 4:2:0
    Битовая глубина : 8 бит
    Тип развёртки : Прогрессивная
    Метод сжатия : С потерями
    Бит/(Пиксели*Кадры) : 0.200
    Размер потока : 654 Мбайт (87%)
    Библиотека кодирования : XviD 1.2.1 (UTC 2008-12-04)

    Аудио
    Идентификатор : 1
    Формат : MPEG Audio
    Версия формата : Version 1
    Профиль формата : Layer 3
    Режим : Joint stereo
    Идентификатор кодека : 55
    Идентификатор кодека/Подсказка : MP3
    Продолжительность : 1 ч. 36 м.
    Вид битрейта : Постоянный
    Битрейт : 128 Кбит/сек
    Каналы : 2 канала
    Частота : 48,0 КГц
    Метод сжатия : С потерями
    Размер потока : 88,1 Мбайт (12%)
    Выравнивание : Разделение по промежуткам
    Продолжительность промежутка : 42 мс. (1,00 видеокадр)
    Время предзагрузки промежутка : 500 мс.
    Библиотека кодирования : LAME3.99r
    Залил: DJ_V.K_TV
    Размер скачиваемого торрента: 748.82 MB (785199560 Bytes)


    1 / 1 (2013) HDRip от Deadmauvlad | Baibako скачать через торрент бесплатно
    загрузка...
    Рейтинг →
     (голосов: 1, оценка 4/5, голосовать можно 1 раз )

    Другие торренты по теме:

  • Сборник - Союз-1-Белая магия (1991) MP3
  • VA - Chillout Essentials Vol.1 (2017) MP3
  • Кармелюк (1-4 серия из 4) / 1985 / РУ / VHSRip
  • Кулинарный вебинар (1-26, 28-36, 38-42) / Принципы Лазерсона Online (1-8) / Сделай как я (1-3) / КПЗ (1 выпуск) / 2013-2015 / РУ / WEBRip (720p)
  • Один плюс один дома / 1+1 дома / 1+1 удома (2014) WEB-DLRip
  • Один плюс один дома / 1+1 дома / 1+1 удома (2014) WEB-DL 1080p от Lyossik
  • Луни Тюнз. Золотая коллекция. Том 1. Диск 1 / Looney Tunes Golden Collection Volume One Part 1 (2006) DVD-5
  • Corel AfterShot Pro 1.1.1.10 (2013) PC | Portable by CheshireCat


    • Комментарии (0):

      Информация

      Информация

        Посетители, находящиеся в группе Гости, не могут оставлять комментарии в данной новости.

        ↓ Меню



        ↓ Опрос

        А Вы добавили сайт в закладки?
        Да
        Не


        Top 10 за месяц (Фильмы)