.
Авторизация | Регистрация
Хочешь лучшие торренты? Добавь свой email!
Добавить
» » Армагеддец / The Worlds End (2013) BDRip-AVC от MediaClub | L2 скачать через торрент бесплатно




    Армагеддец / The Worlds End (2013) BDRip-AVC от MediaClub | L2 скачать через торрент бесплатно

    Опубликовал: Админ | Дата: 27-02-2015, 11:09 | Просмотров: 254



    Детально о кино
    Русское название: Армагеддец
    Русское название в мировом прокате: The World;s End
    Создали в: 2013
    Категория жанра: Фантастика, боевик, комедия
    Главный режиссер: Эдгар Райт
    Актеры: Саймон Пегг, Ник Фрост, Пэдди Консидайн, Мартин Фриман, Эдди Марсан, Розамунд Пайк, Томас Ло, Захари Бэйлесс, Джаспер Ливайн, Джеймс Тарпи

    Сюжет фильма:
    Их подвиг был бы увековечен в Книге рекордов Гиннесса, если бы они знали, что Гиннесс — это не только пиво. Пятеро друзей ставят себе высокую цель — организовать грандиозный забег по барам. Опасности подстерегают их на каждом шагу: красотка, от которой сходила с ума вся школа, так и тянет налево, в то время как справа надвигается таинственная угроза. В результате алкомарафон плавно переходит в реальный Армагеддец…



    Снималось в: Великобритания, Big Talk Productions, Relativity Media
    Время просмотра: 01:49:07
    Перевод текста: Любительский двухголосый (DeadSno den904)

    Файл
    Кодек для видео: x264
    Качество фильма: BDRip-AVC
    Информация о видео: MPEG-4 AVC, 2700 Кбит/с, 1024x436, 23.976 кадр/с
    Информация о звуке: Русский, английский (AC3, 6 ch, 448 Кбит/с)
    Субтитры: Русские, английские

    Семпл

    MI
    x264 info: frame I:1526 Avg QP:16.22 size: 76953
    x264 info: frame P:38498 Avg QP:19.11 size: 25679
    x264 info: frame B:116959 Avg QP:20.97 size: 9403

    Format : Matroska
    Format version : Version 4 / Version 2
    File size : 2.74 GiB
    Duration : 1h 49mn
    Overall bit rate : 3 594 Kbps
    Movie name : -=MediaClub - Odessit=-
    Encoded date : UTC 2013-11-23 20:03:58
    Writing application : mkvmerge v6.2.0 (;Promised Land;) built on Apr 28 2013 12:22:01
    Writing library : libebml v1.3.0 libmatroska v1.4.0

    Video
    ID : 1
    Format : AVC
    Format/Info : Advanced Video Codec
    Format profile : High@L4.1
    Format settings, CABAC : Yes
    Format settings, ReFrames : 12 frames
    Codec ID : V_MPEG4/ISO/AVC
    Duration : 1h 49mn
    Bit rate : 2 700 Kbps
    Width : 1 024 pixels
    Height : 436 pixels
    Display aspect ratio : 2.35:1
    Frame rate : 23.976 fps
    Color space : YUV
    Chroma subsampling : 4:2:0
    Bit depth : 8 bits
    Scan type : Progressive
    Bits/(Pixel*Frame) : 0.252
    Stream size : 2.00 GiB (73%)
    Writing library : x264 core 130 r2273 b3065e6
    Encoding settings : cabac=1 / ref=12 / deblock=1:-2:-2 / analyse=0x3:0x133 / me=umh / subme=11 / psy=1 / psy_rd=1.00:0.20 / mixed_ref=1 / me_range=48 / chroma_me=1 / trellis=2 / 8x8dct=1 / cqm=0 / deadzone=21,11 / fast_pskip=0 / chroma_qp_offset=-3 / threads=6 / lookahead_threads=1 / sliced_threads=0 / nr=0 / decimate=0 / interlaced=0 / bluray_compat=0 / constrained_intra=0 / bframes=9 / b_pyramid=2 / b_adapt=2 / b_bias=0 / direct=3 / weightb=1 / open_gop=0 / weightp=2 / keyint=240 / keyint_min=23 / scenecut=40 / intra_refresh=0 / rc=2pass / mbtree=0 / bitrate=2700 / ratetol=1.0 / qcomp=0.60 / qpmin=0 / qpmax=69 / qpstep=4 / cplxblur=20.0 / qblur=0.5 / ip_ratio=1.40 / pb_ratio=1.30 / aq=1:1.00
    Language : English

    Audio #1
    ID : 2
    Format : AC-3
    Format/Info : Audio Coding 3
    Mode extension : CM (complete main)
    Codec ID : A_AC3
    Duration : 1h 49mn
    Bit rate mode : Constant
    Bit rate : 448 Kbps
    Channel(s) : 6 channels
    Channel positions : Front: L C R, Side: L R, LFE
    Sampling rate : 48.0 KHz
    Bit depth : 16 bits
    Compression mode : Lossy
    Stream size : 350 MiB (12%)
    Title : Любительский двухголосый (DeadSno den904)
    Language : Russian

    Audio #2
    ID : 3
    Format : AC-3
    Format/Info : Audio Coding 3
    Mode extension : CM (complete main)
    Codec ID : A_AC3
    Duration : 1h 49mn
    Bit rate mode : Constant
    Bit rate : 448 Kbps
    Channel(s) : 6 channels
    Channel positions : Front: L C R, Side: L R, LFE
    Sampling rate : 48.0 KHz
    Bit depth : 16 bits
    Compression mode : Lossy
    Stream size : 350 MiB (12%)
    Language : English

    Text #1
    ID : 4
    Format : UTF-8
    Codec ID : S_TEXT/UTF8
    Codec ID/Info : UTF-8 Plain Text
    Language : Russian

    Text #2
    ID : 5
    Format : UTF-8
    Codec ID : S_TEXT/UTF8
    Codec ID/Info : UTF-8 Plain Text
    Language : English

    Menu
    00:00:00.000 : en:00:00:00.000
    00:05:38.296 : en:00:05:38.296
    00:10:33.007 : en:00:10:33.007
    00:15:34.767 : en:00:15:34.767
    00:19:56.695 : en:00:19:56.695
    00:25:23.981 : en:00:25:23.981
    00:30:07.180 : en:00:30:07.180
    00:36:09.751 : en:00:36:09.751
    00:42:40.266 : en:00:42:40.266
    00:46:17.233 : en:00:46:17.233
    00:50:20.017 : en:00:50:20.017
    00:57:20.729 : en:00:57:20.729
    01:02:29.204 : en:01:02:29.204
    01:06:30.737 : en:01:06:30.737
    01:12:17.124 : en:01:12:17.124
    01:18:37.004 : en:01:18:37.004
    01:23:51.193 : en:01:23:51.193
    01:26:45.784 : en:01:26:45.784
    01:35:16.753 : en:01:35:16.753
    01:42:20.217 : en:01:42:20.217

    Скриншоты для ознакомления


    Релиз подготовил: |
    Размер скачиваемого торрента: 2.74 GB (2941100701 Bytes)

    Армагеддец / The Worlds End (2013) BDRip-AVC от MediaClub | L2 скачать через торрент бесплатно
    загрузка...
    Рейтинг →
     (голосов: 1, оценка 3/5, голосовать можно 1 раз )

    Другие торренты по теме:

  • Армагеддец / The Worlds End (2013) WEBRip | L1
  • Армагеддец / The Worlds End (2013) WEB-DLRip от BitTracker | L1 скачать через торрент бесплатно
  • Армагеддец / The Worlds End (2013) WEB-DLRip от BitTracker
  • Армагеддец / The Worlds End (2013) BDRip 720p | L1 скачать через торрент бесплатно
  • Армагеддец / The Worlds End (2013) HDRip | L1 скачать через торрент бесплатно
  • Армагеддец / The Worlds End (2013) BDRip 720p от leonardo 59 Scarabey | L1
  • Армагеддец / The Worlds End (2013) BDRip 720p от CINEMANIA | L2
  • Армагеддец / The Worlds End (2013) BDRip 1080p от CINEMANIA | L2


    • Комментарии (0):

      Информация

      Информация

        Посетители, находящиеся в группе Гости, не могут оставлять комментарии в данной новости.

        ↓ Меню



        ↓ Опрос

        А Вы добавили сайт в закладки?
        Да
        Не


        Top 10 за месяц (Фильмы)