.
Авторизация | Регистрация
Хочешь лучшие торренты? Добавь свой email!
Добавить
» » Агент (2013) DVDRip от New-Team | лицензия скачать через торрент бесплатно




    Агент (2013) DVDRip от New-Team | лицензия скачать через торрент бесплатно

    Опубликовал: Админ | Дата: 27-02-2015, 11:09 | Просмотров: 318



    Снималось в: Россия / Студия Арт-Базар
    Категория жанра: детектив, приключения, криминал
    Создали в: 2013
    Время просмотра: 16 серий ~ 45 мин.

    Перевод текста: не требуется
    Субтитры подготовлены: нет
    Оригинальная аудиодорожка: русский

    Главный режиссер: Дмитрий Кузьмин, Георгий Гаврилов

    Актеры: Алексей Серебряков, Юрий Беляев, Агния Дитковските, Ольга Сумская, Ада Роговцева, Татьяна Лютаева, Александр Катунин, Ирина Бразговка, Владимир Башкиров, Илья Шакунов...

    Сюжет: Секретному агенту спецслужб Андрею Козыреву по прозвищу Американец, несправедливо осужденному за убийство, однажды выпадает шанс изменить свою жизнь. Он совершает дерзкий побег из колонии, чтобы разыскать своего врага, доказать свою невиновность и спасти мир от нового смертельного вируса, грозящего гибелью миллионам людей.



    Качество фильма: DVDRip (2 x DVD9 R5)
    Тип видео: AVI

    Информация о видео: 688x368 (1.85:1), 25.000 fps, XViD ~ 2000 kbps avg, 0.316 bit/pixel
    Информация о звуке: 48 kHz, АС3 2 ch, 192 kbps, русский

    Примечание: В файле 01.avi находятся 1-я и 2-я серии фильма.

    Раздача от:
    MediaInfo

    Общее
    Полное имя : Agent.2013.O.DVDRip_New-Team_by_avproh?1.avi
    Формат : AVI
    Формат/Информация : Audio Video Interleave
    Размер файла : 1,36 Гбайт
    Продолжительность : 1 ч. 28 м.
    Общий поток : 2201 Кбит/сек
    Программа кодирования : VirtualDubModRus 1.5.10.2 (build 2542/release)
    Библиотека кодирования : VirtualDubMod build 2542/release

    Видео
    Идентификатор : 0
    Формат : MPEG-4 Visual
    Профиль формата : Advanced Simple@L5
    Параметр BVOP формата : 1
    Параметр QPel формата : Нет
    Параметр GMC формата : Без точки перехода
    Параметр матрицы формата : Выборочная
    Идентификатор кодека : XVID
    Идентификатор кодека/Подсказка : XviD
    Продолжительность : 1 ч. 28 м.
    Битрейт : 2000 Кбит/сек
    Ширина : 688 пикселей
    Высота : 368 пикселей
    Соотношение сторон : 1,85:1
    Частота кадров : 25,000 кадров/сек
    Цветовое пространство : YUV
    Субдискретизация насыщенности : 4:2:0
    Битовая глубина : 8 бит
    Тип развёртки : Прогрессивная
    Метод сжатия : С потерями
    Бит/(Пиксели*Кадры) : 0.316
    Размер потока : 1,23 Гбайт (91%)
    Библиотека кодирования : XviD 73

    Аудио
    Идентификатор : 1
    Формат : AC-3
    Формат/Информация : Audio Coding 3
    Расширение режима : CM (complete main)
    Параметр Endianness формата : Big
    Идентификатор кодека : 2000
    Продолжительность : 1 ч. 28 м.
    Вид битрейта : Постоянный
    Битрейт : 192 Кбит/сек
    Каналы : 2 канала
    Расположение каналов : Front: L R
    Частота : 48,0 КГц
    Битовая глубина : 16 бит
    Метод сжатия : С потерями
    Размер потока : 121 Мбайт (9%)
    Выравнивание : Разделение по промежуткам
    Продолжительность промежутка : 40 мс. (1,00 видеокадр)
    Время предзагрузки промежутка : 500 мс.

    Скриншоты для ознакомления:



    Сравнение:

    http://alt.rutor.org/torrent/284631

    http://screenshotcomparison.com/comparison/50078

    Залил: avproh
    Размер скачиваемого торрента: 10.94 GB (11749103616 Bytes)

    Агент (2013) DVDRip от New-Team | лицензия скачать через торрент бесплатно
    загрузка...
    Рейтинг →
     (голосов: 1, оценка 5/5, голосовать можно 1 раз )

    Другие торренты по теме:

  • Агент Джонни Инглиш / Johnny English (2003) BDRip 720p от R.G. GoldenShara | Лицензия
  • Агент Смит Лебедев ТВ - Половины (2008) MP3
  • Джеймс Бонд. Агент 007: Человек с золотым пистолетом / James Bond: The Man with the Golden Gun (1974) BDRip 1080p
  • Агент Коди Бэнкс / Agent Cody Banks (2003) DVDRip-AVC от Youtracker | D
  • Агент под прикрытием / So Undercover (2012) HDRip | L1
  • Джеймс Бонд. Агент 007: Координаты Скайфолл / James Bond: Skyfall (2012) BDRip от HQCLUB | Лицензия
  • Агент (2012) PC | Repack
  • Джеймс Бонд. Агент 007: Золотой глаз / James Bond 007: Golden Eye (1995) НDRip от Scarabey | D


    • Комментарии (0):

      Информация

      Информация

        Посетители, находящиеся в группе Гости, не могут оставлять комментарии в данной новости.

        ↓ Меню



        ↓ Опрос

        А Вы добавили сайт в закладки?
        Да
        Не


        Top 10 за месяц (Фильмы)