.
Авторизация | Регистрация
» » Отряд Дельта / The Delta Force (1986) BDRip-AVC от 0ptimus | P, A торрент скачать бесплатно




    Отряд Дельта / The Delta Force (1986) BDRip-AVC от 0ptimus | P, A торрент скачать бесплатно

    Опубликовал: Админ | Дата: 27-02-2015, 11:09 | Просмотров: 359



    Детально о кино
    Русское название: Отряд Дельта
    Русское название в мировом прокате: The Delta Force
    Создали в: 1986
    Категория жанра: Боевик, триллер, драма, приключения, военный
    Главный режиссер: Менахем Голан
    Актеры: Чак Норрис, Ли Марвин, Мартин Балсам, Джои Бишоп, Роберт Форстер, Лэйни Кэзан, Джордж Кеннеди, Ханна Шигула, Сьюзэн Страсберг, Бо Свенсон, Роберт Вон, Шелли Уинтерс, Уильям Уоллес, Чарльз Грант, Джерри Вайнсток, Марвин Фридман, Боб Левит, Келли Голдберг, Крис Эллиа, Джерри Лэзарас, Натали Рот, Джерри Химэн, Хэнк Лейнингер, Ховард Джексон, Эрик Норрис, Аарон Каплан, Кэролайн Лангфорд, Иегуда Эфрони, Давид Менахем, Шайке Офир, Ури Гавриел

    Сюжет фильма:
    Когда террористы захватывают американских туристов и переправляют их в Бейрут, президент направляет отряд Дельта — бригаду первоклассных бойцов под командованием полковника Ника Александера и майора Скотта Маккоя, чтобы освободить их. Вскоре после переброски на Средний Восток элитный спасательный отряд получаетсведения, что женщин и детей отпустили, но мужчин банда фанатичных преступников по-прежнему удерживает в здании школы, расположенном на берегу моря. Сметая все на своем пути, сквозь огонь и взрывы отряд Дельта прорывается в лагерь террористов и, не оставляя пленных, освобождает заложников. Однако на этом миссия не заканчивается. Бандиты успели перевезти нескольких заложников в Тегеран, и теперь в битве за их спасение время работает против Александера и Маккоя. Они обязаны успеть — ведь на кону жизнь людей и честь родины.



    Снималось в: США, Израиль
    Киностудия: Golan-Globus Productions Ltd.
    Время просмотра: 02:09:13
    Перевод текста: Профессиональный (многоголосый закадровый), авторский (одноголосый закадровый)

    Файл
    Кодек для видео: h264
    Качество фильма: BDRip-AVC
    Информация о видео: MPEG-4 AVC, 2920 Кбит/с, 1024x576, 23.976 кадр/с

    Информация о звуке:
    • №1: Русский (AC3, 2 ch, 192 Кбит/с) Профессиональный многоголосый R5
    • №2: Русский (AC3, 2 ch, 192 Кбит/с) Авторский одноголосый Василий Горчаков
    • №3: Английский (AC3, 2 ch, 192 Кбит/с)
    Отдельно:
    • №4: Русский (AC3, 2 ch, 192 Кбит/с) Профессиональный многоголосый
    • №5: Русский (AC3, 2 ch, 192 Кбит/с) Авторский одноголосый Леонид Володарский
    • №6: Русский (AC3, 2 ch, 192 Кбит/с) Авторский одноголосый Владимир Сонькин
    • №7: Русский (AC3, 2 ch, 192 Кбит/с) Авторский одноголосый Андрей Дольский

    Субтитры: Английские

    MediaInfo

    ------------------------------------------------------------------
    x264 info: frame I:1565 Avg QP:17.75 size: 84455
    x264 info: frame P:41079 Avg QP:19.20 size: 32760
    x264 info: frame B:143244 Avg QP:20.20 size: 9427
    ------------------------------------------------------------------

    Полное имя : The.Delta.Force.1986.x264.BDRip.(AVC).0ptimus.mkv
    Формат : Matroska
    Версия формата : Version 4 / Version 2
    Размер файла : 3,16 Гбайт
    Продолжительность : 2 ч. 9 м.
    Общий поток : 3497 Кбит/сек
    Название фильма : Отряд Дельта | The Delta Force 1986 -=BDRip (AVC) by 0ptimus=-
    Дата кодирования : UTC 2013-11-25 08:44:26
    Программа кодирования : mkvmerge v6.1.0 (;Old Devil;) built on Mar 2 2013 14:32:37
    Библиотека кодирования : libebml v1.3.0 libmatroska v1.4.0

    Видео
    Идентификатор : 1
    Формат : AVC
    Формат/Информация : Advanced Video Codec
    Профиль формата : High@L4.1
    Параметр CABAC формата : Да
    Параметр ReFrames формата : 9 кадров
    Идентификатор кодека : V_MPEG4/ISO/AVC
    Продолжительность : 2 ч. 9 м.
    Битрейт : 2920 Кбит/сек
    Ширина : 1024 пикселя
    Высота : 576 пикселей
    Соотношение сторон : 16:9
    Частота кадров : 23,976 кадра/сек
    Цветовое пространство : YUV
    Субдискретизация насыщенности : 4:2:0
    Битовая глубина : 8 бит
    Тип развёртки : Прогрессивная
    Бит/(Пиксели*Кадры) : 0.206
    Размер потока : 2,57 Гбайт (82%)
    Заголовок : Rip by 0ptimus
    Библиотека кодирования : x264 core 125 r2208 d9d2288
    Настройки программы : cabac=1 / ref=9 / deblock=1:-3:-3 / analyse=0x3:0x113 / me=umh / subme=11 / psy=1 / psy_rd=1.00:0.20 / mixed_ref=1 / me_range=32 / chroma_me=1 / trellis=2 / 8x8dct=1 / cqm=0 / deadzone=21,11 / fast_pskip=0 / chroma_qp_offset=-3 / threads=4 / lookahead_threads=1 / sliced_threads=0 / nr=0 / decimate=0 / interlaced=0 / bluray_compat=0 / constrained_intra=0 / bframes=11 / b_pyramid=2 / b_adapt=2 / b_bias=0 / direct=3 / weightb=1 / open_gop=0 / weightp=2 / keyint=240 / keyint_min=23 / scenecut=40 / intra_refresh=0 / rc_lookahead=40 / rc=2pass / mbtree=0 / bitrate=2920 / ratetol=1.0 / qcomp=0.60 / qpmin=0 / qpmax=69 / qpstep=4 / cplxblur=20.0 / qblur=0.5 / vbv_maxrate=50000 / vbv_bufsize=50000 / nal_hrd=none / ip_ratio=1.40 / pb_ratio=1.30 / aq=1:1.00
    Язык : English

    Аудио #1
    Идентификатор : 2
    Формат : AC-3
    Формат/Информация : Audio Coding 3
    Расширение режима : CM (complete main)
    Идентификатор кодека : A_AC3
    Продолжительность : 2 ч. 9 м.
    Вид битрейта : Постоянный
    Битрейт : 192 Кбит/сек
    Каналы : 2 канала
    Расположение каналов : Front: L R
    Частота : 48,0 КГц
    Битовая глубина : 16 бит
    Метод сжатия : С потерями
    Размер потока : 177 Мбайт (5%)
    Заголовок : Многоголосый R5 AC3 2.0 @ 192 kbps
    Язык : Russian

    Аудио #2
    Идентификатор : 3
    Формат : AC-3
    Формат/Информация : Audio Coding 3
    Расширение режима : CM (complete main)
    Идентификатор кодека : A_AC3
    Продолжительность : 2 ч. 9 м.
    Вид битрейта : Постоянный
    Битрейт : 192 Кбит/сек
    Каналы : 2 канала
    Расположение каналов : Front: L R
    Частота : 48,0 КГц
    Битовая глубина : 16 бит
    Метод сжатия : С потерями
    Размер потока : 177 Мбайт (5%)
    Заголовок : Авторский Василий Горчаков AC3 2.0 @ 192 kbps
    Язык : Russian

    Аудио #3
    Идентификатор : 4
    Формат : AC-3
    Формат/Информация : Audio Coding 3
    Расширение режима : CM (complete main)
    Идентификатор кодека : A_AC3
    Продолжительность : 2 ч. 9 м.
    Вид битрейта : Постоянный
    Битрейт : 192 Кбит/сек
    Каналы : 2 канала
    Расположение каналов : Front: L R
    Частота : 48,0 КГц
    Битовая глубина : 16 бит
    Метод сжатия : С потерями
    Размер потока : 177 Мбайт (5%)
    Заголовок : AC3 2.0 @ 192 kbps
    Язык : English

    Текст
    Идентификатор : 5
    Формат : UTF-8
    Идентификатор кодека : S_TEXT/UTF8
    Идентификатор кодека/Информация : UTF-8 Plain Text
    Язык : English

    Меню
    00:00:00.000 : :Credits/Hang On!
    00:05:19.277 : :Have A Nice Flight
    00:08:26.213 : :This Is A Hijack!
    00:16:05.381 : :Alert Delta Force
    00:23:02.756 : :The Chosen People
    00:30:23.821 : :Out Of Retirement
    00:32:08.551 : :I;m Jewish!
    00:38:23.050 : :Landing In Beirut
    00:42:15.991 : :Plan Of Attack
    00:46:34.500 : :Hostages In Algiers
    00:48:43.879 : :Women and Children First
    00:56:52.117 : :Take ;Em Down!
    01:02:27.368 : :Israeli Intelligence
    01:04:41.752 : :Bad News
    01:09:29.206 : :Inside Man Out
    01:14:18.412 : :A Close One!
    01:17:04.077 : :Here Come The Troops
    01:24:02.954 : :A Blast From Below
    01:31:08.546 : :Loud and Clear
    01:35:22.883 : :Speak Or You;re Dead
    01:38:59.390 : :Surprise Party
    01:45:49.968 : :American Ambush
    01:52:56.644 : :Daring Escape
    01:59:09.725 : :Reunion/Credits
    02:09:13.036 : :End
    Скриншоты для ознакомления




    Релиз подготовил:
    Размер скачиваемого торрента: 3.85 GB (4133078422 Bytes)

    Отряд Дельта / The Delta Force (1986) BDRip-AVC от 0ptimus | P, A торрент скачать бесплатно
    загрузка...
    Рейтинг →
     (голосов: 1, оценка 4/5, голосовать можно 1 раз )

    Другие торренты по теме:



      Комментарии (0):

      Информация

      Информация

        Посетители, находящиеся в группе Гости, не могут оставлять комментарии в данной новости.

        ↓ Меню



        ↓ Опрос

        А Вы добавили сайт в закладки?
        Да
        Не


        Top 10 за неделю (Фильмы)