.
Авторизация | Регистрация
» » Погнали! / Getaway (2013) BDRip 1080p | Baibako торрент скачать бесплатно




    Погнали! / Getaway (2013) BDRip 1080p | Baibako торрент скачать бесплатно

    Опубликовал: Админ | Дата: 27-02-2015, 11:09 | Просмотров: 381



    Детально о кино
    Русское название: Погнали!
    Русское название в мировом прокате: Getaway
    Создали в: 2013
    Категория жанра: Боевик, криминал
    Снималось в: США, Болгария, Warner Bros., After Dark Films, Dark Castle Entertainment, Silver Reel
    Главный режиссер: Кортни Соломон
    Актеры: Итан Хоук, Селена Гомес, Джон Войт, Ребекка Бьюдиг, Пол Фримен, Брюс Пэйн, Димо Алексиев, Велислав Павлов, Деян Ангелов

    Сюжет фильма: Бывшему гонщику Бренту приходится сесть за руль и следовать указаниям таинственного человека, чтобы спасти свою похищенную жену.

    Качество фильма: BDRip (1080p)
    Информация о видео: MPEG-4 AVC, 8422 Кбит/с, 1920x802
    Информация о звуке: Русский (AC3, 6 ch, 384 Кбит/с), английский (DTS, 6 ch, 1510 Кбит/с)
    Размер скачиваемого торрента: 6.49 ГБ
    Время просмотра: 01:30:04
    Перевод текста: Профессиональный многоголосый Baibako

    Семпл
    MI
    бщее
    Уникальный идентификатор : 187116022715711098768330980272060006816 (0x8CC53C30F95425CD9288B6F2CC0C81A0)
    Полное имя : D:Getaway.2013.BluRay.1080p.x264-HDWinG.mkv
    Формат : Matroska
    Версия формата : Version 2
    Размер файла : 6,49 Гбайт
    Продолжительность : 1 ч. 30 м.
    Общий поток : 10,3 Мбит/сек
    Дата кодирования : UTC 2013-11-25 08:50:19
    Программа кодирования : mkvmerge v6.3.0 (;You can;t stop me!;) built on Jun 28 2013 20:09:41
    Библиотека кодирования : libebml v1.3.0 libmatroska v1.4.0

    Видео
    Идентификатор : 1
    Формат : AVC
    Формат/Информация : Advanced Video Codec
    Профиль формата : High@L4.1
    Параметр CABAC формата : Да
    Параметр ReFrames формата : 5 кадров
    Идентификатор кодека : V_MPEG4/ISO/AVC
    Продолжительность : 1 ч. 30 м.
    Битрейт : 8422 Кбит/сек
    Ширина : 1920 пикселей
    Высота : 802 пикселя
    Соотношение сторон : 2,40:1
    Режим частоты кадров : Постоянный
    Частота кадров : 23,976 кадра/сек
    Цветовое пространство : YUV
    Субдискретизация насыщенности : 4:2:0
    Битовая глубина : 8 бит
    Тип развёртки : Прогрессивная
    Бит/(Пиксели*Кадры) : 0.228
    Размер потока : 5,17 Гбайт (80%)
    Библиотека кодирования : x264 core 136 r2348 704 51 d1baef6 tMod 8-bit@4:2:0 X86_64
    Настройки программы : cabac=1 / ref=5 / deblock=1:-3:-3 / analyse=0x3:0x113 / me=umh / subme=11 / psy=1 / fade_compensate=0.00 / psy_rd=1.00:0.00 / mixed_ref=1 / me_range=32 / chroma_me=1 / trellis=2 / 8x8dct=1 / cqm=0 / deadzone=21,11 / fast_pskip=0 / chroma_qp_offset=-2 / threads=12 / lookahead_threads=2 / sliced_threads=0 / nr=0 / decimate=0 / interlaced=0 / bluray_compat=0 / constrained_intra=0 / fgo=0 / bframes=8 / b_pyramid=2 / b_adapt=2 / b_bias=0 / direct=3 / weightb=1 / open_gop=0 / weightp=2 / keyint=240 / keyint_min=24 / scenecut=40 / intra_refresh=0 / rc_lookahead=240 / rc=2pass / mbtree=1 / bitrate=8422 / ratetol=1.0 / qcomp=0.70 / qpmin=0:0:0 / qpmax=69:69:69 / qpstep=4 / cplxblur=20.0 / qblur=0.5 / ip_ratio=1.10 / aq=4:0.85 / aq-sensitivity=10.00 / aq-factor=1.00:1.00:1.00 / aq2=0 / aq3=0
    Язык : English
    Default : Да
    Forced : Нет

    Аудио #1
    Идентификатор : 2
    Формат : AC-3
    Формат/Информация : Audio Coding 3
    Расширение режима : CM (complete main)
    Параметр Endianness формата : Big
    Идентификатор кодека : A_AC3
    Продолжительность : 1 ч. 30 м.
    Вид битрейта : Постоянный
    Битрейт : 384 Кбит/сек
    Каналы : 6 каналов
    Расположение каналов : Front: L C R, Side: L R, LFE
    Частота : 48,0 КГц
    Битовая глубина : 16 бит
    Метод сжатия : С потерями
    Размер потока : 247 Мбайт (4%)
    Язык : Russian
    Default : Да
    Forced : Нет

    Аудио #2
    Идентификатор : 3
    Формат : DTS
    Формат/Информация : Digital Theater Systems
    Режим : 16
    Параметр Endianness формата : Big
    Идентификатор кодека : A_DTS
    Продолжительность : 1 ч. 30 м.
    Вид битрейта : Постоянный
    Битрейт : 1509 Кбит/сек
    Каналы : 6 каналов
    Расположение каналов : Front: L C R, Side: L R, LFE
    Частота : 48,0 КГц
    Битовая глубина : 24 бит
    Метод сжатия : С потерями
    Размер потока : 972 Мбайт (15%)
    Заголовок : DTS-CORE 1536K ENG
    Язык : English
    Default : Нет
    Forced : Нет

    Меню
    00:00:00.000 : en:00:00:00.000
    00:09:36.701 : en:00:09:36.701
    00:20:01.200 : en:00:20:01.200
    00:30:40.589 : en:00:30:40.589
    00:41:12.762 : en:00:41:12.762
    00:50:33.739 : en:00:50:33.739
    01:00:03.475 : en:01:00:03.475
    01:10:07.578 : en:01:10:07.578
    01:18:37.713 : en:01:18:37.713
    01:22:02.209 : en:01:22:02.209

    Скриншоты для ознакомления



    Размер скачиваемого торрента: 6.49 GB (6968051962 Bytes)

    Погнали! / Getaway (2013) BDRip 1080p | Baibako торрент скачать бесплатно
    загрузка...
    Рейтинг →
     (голосов: 1, оценка 3/5, голосовать можно 1 раз )

    Другие торренты по теме:

  • Погнали! / Getaway (2013) BDRip-AVC от HELLYWOOD | P торрент скачать бесплатно
  • Погнали! / Getaway (2013) BDRemux 1080p от ExKinoRay | Baibako торрент скачать бесплатно
  • Погнали! / Getaway (2013) BDRip 720p | Baibako торрент скачать бесплатно
  • Погнали! / Getaway (2013) HDRip | Baibako торрент скачать бесплатно
  • Погнали! / Getaway (2013) BDRip-AVC | Baibako торрент скачать бесплатно
  • Погнали! / Getaway (2013) BDRip 720p от HELLYWOOD | P скачать через торрент бесплатно
  • Погнали! / Getaway (2013) BDRip 720p от leonardo 59 Scarabey | P | Baibako скачать через торрент бесплатно
  • Погнали! / Getaway (2013) HDRip от Smart-Tracker | P | КПК скачать через торрент бесплатно


    • Комментарии (0):

      Информация

      Информация

        Посетители, находящиеся в группе Гости, не могут оставлять комментарии в данной новости.

        ↓ Меню



        ↓ Опрос

        А Вы добавили сайт в закладки?
        Да
        Не


        Top 10 за неделю (Фильмы)