.
Авторизация | Регистрация
» » Элизиум. Рай не на земле / Elysium (2013) BDRemux 1080p | Лицензия скачать через торрент бесплатно




    Элизиум. Рай не на земле / Elysium (2013) BDRemux 1080p | Лицензия скачать через торрент бесплатно

    Опубликовал: Админ | Дата: 27-02-2015, 11:09 | Просмотров: 458



    Детально о кино
    Русское название: Элизиум: Рай не на Земле
    Русское название в мировом прокате: Elysium
    Создали в: 2013
    Категория жанра: Фантастика, боевик, триллер, драма
    Снималось в: США, Media Rights Capital, QED International, Simon Kinberg Productions, Sony Pictures Entertainment (SPE), TriStar Pictures
    Главный режиссер: Нил Бломкамп
    Актеры: Мэтт Дэймон, Джоди Фостер, Шарлто Копли, Алиси Брага, Диего Луна, Вагнер Моура, Уильям Фихтнер, Карли Поуп, Майкл Шэнкс, Талиса Сото

    Сюжет фильма: В 2154 году существует два класса людей: очень богатые, живущие на чистой, созданной руками человека, космической станции под названием Элизиум и остальные, живущие на перенаселённой разрушенной Земле. Безжалостный правительственный чиновник Министр Роудс не остановится ни перед чем для применения анти-иммиграционных законов и сохранения роскошного образа жизни граждан Элизиума. Когда неудачника Макса загоняют в угол, он соглашается взять на себя сложную миссию, которая в случае успеха не только спасёт ему жизнь, но и может привести к равенству этих поляризованных миров.



    Файл
    Качество фильма: Blu-Ray Remux (1080p)
    Информация о видео: MPEG-4 AVC, 24959 Кбит/с, 1920x1080
    Информация о звуке: Русский, украинский (AC3, 6 ch, 640 Кбит/с), английский (DTS-HD MA, 8 ch, 2775 Кбит/с)
    Размер скачиваемого торрента: 22.21 ГБ
    Время просмотра: 01:49:35
    Перевод текста: Дублированный лицензия
    Субтитры: Русские, английские

    MediaInfo
    бщее
    Уникальный идентификатор : 222461650586352301196977248906446786431 (0xA75C8E30EFA8813590055DB7C0964F7F)
    Полное имя : D:Elysium.2013.1080p.BluRay.Remux.DTS-HD.MA.7.1.x264.mkv
    Формат : Matroska
    Версия формата : Version 2
    Размер файла : 22,2 Гбайт
    Продолжительность : 1 ч. 49 м.
    Режим общего битрейта : Переменный
    Общий поток : 29,0 Мбит/сек
    Дата кодирования : UTC 2013-11-25 22:16:27
    Программа кодирования : mkvmerge v6.3.0 (;You can;t stop me!;) built on Jun 28 2013 20:09:41
    Библиотека кодирования : libebml v1.3.0 libmatroska v1.4.0

    Видео
    Идентификатор : 1
    Формат : AVC
    Формат/Информация : Advanced Video Codec
    Профиль формата : High@L4.1
    Параметр CABAC формата : Да
    Параметр ReFrames формата : 2 кадра
    Параметр GOP формата : M=1, N=10
    Идентификатор кодека : V_MPEG4/ISO/AVC
    Продолжительность : 1 ч. 49 м.
    Вид битрейта : Переменный
    Ширина : 1920 пикселей
    Высота : 1080 пикселей
    Соотношение сторон : 16:9
    Режим частоты кадров : Постоянный
    Частота кадров : 23,976 кадра/сек
    Цветовое пространство : YUV
    Субдискретизация насыщенности : 4:2:0
    Битовая глубина : 8 бит
    Тип развёртки : Прогрессивная
    Язык : English
    Default : Да
    Forced : Нет

    Аудио #1
    Идентификатор : 2
    Формат : AC-3
    Формат/Информация : Audio Coding 3
    Расширение режима : CM (complete main)
    Параметр Endianness формата : Big
    Идентификатор кодека : A_AC3
    Продолжительность : 1 ч. 49 м.
    Вид битрейта : Постоянный
    Битрейт : 640 Кбит/сек
    Каналы : 6 каналов
    Расположение каналов : Front: L C R, Side: L R, LFE
    Частота : 48,0 КГц
    Битовая глубина : 16 бит
    Метод сжатия : С потерями
    Размер потока : 502 Мбайт (2%)
    Язык : Russian
    Default : Да
    Forced : Нет

    Аудио #2
    Идентификатор : 3
    Формат : AC-3
    Формат/Информация : Audio Coding 3
    Расширение режима : CM (complete main)
    Параметр Endianness формата : Big
    Идентификатор кодека : A_AC3
    Продолжительность : 1 ч. 49 м.
    Вид битрейта : Постоянный
    Битрейт : 640 Кбит/сек
    Каналы : 6 каналов
    Расположение каналов : Front: L C R, Side: L R, LFE
    Частота : 48,0 КГц
    Битовая глубина : 16 бит
    Метод сжатия : С потерями
    Размер потока : 502 Мбайт (2%)
    Язык : Ukrainian
    Default : Нет
    Forced : Нет

    Аудио #3
    Идентификатор : 4
    Формат : DTS
    Формат/Информация : Digital Theater Systems
    Профиль формата : MA / Core
    Режим : 16
    Параметр Endianness формата : Big
    Идентификатор кодека : A_DTS
    Продолжительность : 1 ч. 49 м.
    Вид битрейта : Переменный
    Битрейт : Неизвестно / 1509 Кбит/сек
    Каналы : 8 каналов / 6 каналов
    Расположение каналов : Front: L C R, Side: L R, Back: L R, LFE / Front: L C R, Side: L R, LFE
    Частота : 48,0 КГц
    Битовая глубина : 16 бит
    Метод сжатия : Без потерь / Lossy
    Язык : English
    Default : Нет
    Forced : Нет

    Текст #1
    Идентификатор : 5
    Формат : UTF-8
    Идентификатор кодека : S_TEXT/UTF8
    Идентификатор кодека/Информация : UTF-8 Plain Text
    Язык : Russian
    Default : Да
    Forced : Нет

    Текст #2
    Идентификатор : 6
    Формат : UTF-8
    Идентификатор кодека : S_TEXT/UTF8
    Идентификатор кодека/Информация : UTF-8 Plain Text
    Язык : Russian
    Default : Нет
    Forced : Нет

    Текст #3
    Идентификатор : 7
    Формат : UTF-8
    Идентификатор кодека : S_TEXT/UTF8
    Идентификатор кодека/Информация : UTF-8 Plain Text
    Default : Нет
    Forced : Нет

    Текст #4
    Идентификатор : 8
    Формат : UTF-8
    Идентификатор кодека : S_TEXT/UTF8
    Идентификатор кодека/Информация : UTF-8 Plain Text
    Язык : English
    Default : Нет
    Forced : Нет

    Меню
    00:00:00.000 : en:00:00:00.000
    00:07:02.589 : en:00:07:02.589
    00:11:59.344 : en:00:11:59.344
    00:19:27.625 : en:00:19:27.625
    00:25:34.825 : en:00:25:34.825
    00:30:02.342 : en:00:30:02.342
    00:39:22.068 : en:00:39:22.068
    00:57:43.960 : en:00:57:43.960
    01:00:59.197 : en:01:00:59.197
    01:04:09.637 : en:01:04:09.637
    01:07:22.664 : en:01:07:22.664
    01:10:34.147 : en:01:10:34.147
    01:16:59.865 : en:01:16:59.865
    01:22:50.132 : en:01:22:50.132
    01:30:19.914 : en:01:30:19.914
    01:35:44.530 : en:01:35:44.530

    Скриншоты для ознакомления



    Размер скачиваемого торрента: 22.21 GB (23851813083 Bytes)

    Элизиум. Рай не на земле / Elysium (2013) BDRemux 1080p | Лицензия скачать через торрент бесплатно
    загрузка...
    Рейтинг →
     (голосов: 1, оценка 5/5, голосовать можно 1 раз )

    Другие торренты по теме:

  • Элизиум: Рай не на Земле / Elysium (2013) CAMRip торрент скачать бесплатно
  • Элизиум: Рай не на Земле / Elysium (2013) CAMRip торрент скачать бесплатно
  • Элизиум: Рай не на Земле / Elysium (2013) CAMRip *PROPER* от INTERCINEMA торрент скачать бесплатно
  • Элизиум: Рай не на Земле / Elysium (2013) TS торрент скачать бесплатно
  • Элизиум: Рай не на Земле / Elysium (2013) TS *PROPER* от INTERCINEMA торрент скачать бесплатно
  • Элизиум: Рай не на Земле / Elysium (2013) DVDScreener торрент скачать бесплатно
  • Элизиум: Рай не на Земле / Elysium (2013) WEBRip торрент скачать бесплатно
  • Элизиум: Рай не на Земле / Elysium (2013) WEBRip от Один 777 скачать через торрент бесплатно


    • Комментарии (0):

      Информация

      Информация

        Посетители, находящиеся в группе Гости, не могут оставлять комментарии в данной новости.

        ↓ Меню



        ↓ Опрос

        А Вы добавили сайт в закладки?
        Да
        Не


        Top 10 за неделю (Фильмы)