.
Авторизация | Регистрация
Хочешь лучшие торренты? Добавь свой email!
Добавить
» » Считанные часы / Hours (2013) HDRip скачать через торрент бесплатно




    Считанные часы / Hours (2013) HDRip скачать через торрент бесплатно

    Опубликовал: Админ | Дата: 27-02-2015, 11:09 | Просмотров: 384



    Детально о кино
    Русское название: Считанные часы
    Русское название в мировом прокате: Hours
    Создали в: 2013
    Категория жанра: триллер
    Главный режиссер: Эрик Хайссерер / Eric Heisserer
    Актеры: Пол Уокер, Дженезис Родригез, Ник Гомес, Мэтт Кук, Тони Бентли, Джудд Лорманд, Мишель Торрес, Керри Кехилл, Ренелл Гиббс, Лена Кларк

    Сюжет фильма:
    Новый Орлеан. Август 2005-го. Смертоносный ураган Катрина сметает все на своем пути. Отец изо всех сил пытается спасти свою дочь. Он понимает, что справиться со стихией, остановить беспощадный ураган не в его силах. На спасение дочери остаются считанные часы…




    Снималось в: США
    Время просмотра: 01:36:59
    Перевод текста: Любительский (двухголосый) DeadSno den904
    перевод на русский язык kon2011

    Файл
    Кодек для видео: XviD
    Качество фильма: HDRip (Исх. BDRip 720p)
    Информация о видео: 688x288 (2.39:1), 23.976 fps, XviD build 50 ~936 kbps avg, 0.20 bit/pixel
    Информация о звуке: 48 kHz, MPEG Layer 3, 2 ch, ~128.00 kbps avg
    Субтитры: нет

    Семпл

    MediaInfo

    Общий поток : 1073 Кбит/сек
    Программа кодирования : VirtualDubMod 1.5.10.3 | www.virtualdub-fr.org || (build 2550/release)
    Библиотека кодирования : VirtualDubMod build 2550/release

    Видео
    Идентификатор : 0
    Формат : MPEG-4 Visual
    Профиль формата : Advanced Simple@L5
    Параметр BVOP формата : 2
    Параметр QPel формата : Нет
    Параметр GMC формата : Без точки перехода
    Параметр матрицы формата : Выборочная
    Идентификатор кодека : XVID
    Идентификатор кодека/Подсказка : XviD
    Продолжительность : 1 ч. 36 м.
    Битрейт : 936 Кбит/сек
    Ширина : 688 пикс.
    Высота : 288 пикс.
    Соотношение сторон : 2,40:1
    Частота кадров : 23,976 кадр/сек
    Цветовое пространство : YUV
    Подвыборка цветности : 4:2:0
    Битовая глубина : 8 бит
    Тип развёртки : Прогрессивная
    Метод сжатия : С потерями
    Бит/(Пиксели*Кадры) : 0.197
    Размер потока : 649 Мбайт (87%)
    Библиотека кодирования : XviD 1.2.1 (UTC 2008-12-04)

    Аудио
    Идентификатор : 1
    Формат : MPEG Audio
    Версия формата : Version 1
    Профиль формата : Layer 3
    Идентификатор кодека : 55
    Идентификатор кодека/Подсказка : MP3
    Продолжительность : 1 ч. 36 м.
    Вид битрейта : Постоянный
    Битрейт : 128 Кбит/сек
    Каналы : 2 канала
    Частота : 48,0 КГц
    Метод сжатия : С потерями
    Размер потока : 88,8 Мбайт (12%)
    Выравнивание : Соединение по промежуткам
    Продолжительность промежутка : 42 мс. (1,00 видеокадр)
    Время предзагрузки промежутка : 504 ms
    Библиотека кодирования : LAME3.99r
    Залил: Losk
    Размер скачиваемого торрента: 744.67 MB (780845056 Bytes)


    Считанные часы / Hours (2013) HDRip скачать через торрент бесплатно
    загрузка...
    Рейтинг →
     (голосов: 1, оценка 5/5, голосовать можно 1 раз )

    Другие торренты по теме:

  • Считанные часы / Hours (2013) DVDRip | Sub скачать через торрент бесплатно
  • Считанные часы / Hours (2013) BDRip 720p от CINEMANIA | L2
  • Считанные часы / Hours (2013) BDRip 1080p от CINEMANIA | L2
  • Считанные часы / Hours (2013) HDRip от CINEMANIA | L2
  • Считанные часы / Hours (2013) Blu-ray Remux 1080p от MediaClub | L2
  • Считанные часы / Hours (2013) BDRip-AVC от MediaClub | L2
  • Считанные часы / Hours (2013) HDRip от Scarabey | L2
  • Считанные часы / Hours (2013) BDRip 720p от leonardo 59 Scarabey | L2 скачать через торрент бесплатно


    • Комментарии (0):

      Информация

      Информация

        Посетители, находящиеся в группе Гости, не могут оставлять комментарии в данной новости.

        ↓ Меню



        ↓ Опрос

        А Вы добавили сайт в закладки?
        Да
        Не


        Top 10 за месяц (Фильмы)