.
Авторизация | Регистрация
Хочешь лучшие торренты? Добавь свой email!
Добавить
» » Костер тщеславий / The Bonfire of the Vanities (1990) BDRip 720p от MediaClub | D, P, A торрент скачать бесплатно




    Костер тщеславий / The Bonfire of the Vanities (1990) BDRip 720p от MediaClub | D, P, A торрент скачать бесплатно

    Опубликовал: Админ | Дата: 27-02-2015, 11:09 | Просмотров: 344



    Детально о кино
    Русское название: Костер тщеславий
    Русское название в мировом прокате: The Bonfire of the Vanities
    Создали в: 1990
    Категория жанра: Драма, комедия
    Главный режиссер: Брайан Де Пальма
    Актеры: Том Хэнкс, Брюс Уиллис, Мелани Гриффит, Ким Кэтролл, Сол Рубинек, Морган Фриман, Джон Хэнкок, Кевин Данн, Клифтон Джеймс, Луис Гьямбалво, Кирстен Данст

    Сюжет фильма:
    Шерман Маккой был этаким центром Вселенной с Уолл-Стрит. И все в его жизни было правильно и надлежащим образом. У него была замечательная карьера, замечательный дом, замечательная жена. Только однажды ночью, сидя в хорошем автомобиле, он сделал не тот поворот, в не том месте, с не той женщиной. И с тех пор у него все пошло не так.



    Снималось в: США, Warner Bros. Pictures
    Время просмотра: 02:05:24
    Перевод текста: Дублированный, профессиональный многоголосый, авторский

    Файл
    Кодек для видео: x264
    Качество фильма: BDRip (720p)
    Информация о видео: MPEG-4 AVC, 7500 Кбит/с, 1272x720, 23.976 кадр/с
    Информация о звуке #1: Русский (AC3, 2 ch, 192 Кбит/с) / Дублированный (Варус-Видео)
    Информация о звуке #2: Русский (AC3, 2 ch, 192 Кбит/с) / Профессиональный многоголосый (ТНТ)
    Информация о звуке #3: Русский (AC3, 2 ch, 192 Кбит/с) / Авторский одноголосый (А. Михалев)
    Информация о звуке #4: Русский (AC3, 2 ch, 192 Кбит/с) / Авторский одноголосый (В. Горчаков)
    Информация о звуке #5: Английский (AC3, 2 ch, 192 Кбит/с)
    Субтитры: Английские

    Семпл

    MI
    Format : Matroska
    Format version : Version 4 / Version 2
    File size : 7.41 GiB
    Duration : 2h 5mn
    Overall bit rate : 8 461 Kbps
    Movie name : -=MediaClub - Odessit=-
    Encoded date : UTC 2013-11-27 13:09:55
    Writing application : mkvmerge v6.2.0 (;Promised Land;) built on Apr 28 2013 12:22:01
    Writing library : libebml v1.3.0 libmatroska v1.4.0

    Video
    ID : 1
    Format : AVC
    Format/Info : Advanced Video Codec
    Format profile : High@L4.1
    Format settings, CABAC : Yes
    Format settings, ReFrames : 9 frames
    Codec ID : V_MPEG4/ISO/AVC
    Duration : 2h 5mn
    Bit rate : 7 500 Kbps
    Width : 1 272 pixels
    Height : 720 pixels
    Display aspect ratio : 16:9
    Frame rate : 23.976 fps
    Color space : YUV
    Chroma subsampling : 4:2:0
    Bit depth : 8 bits
    Scan type : Progressive
    Bits/(Pixel*Frame) : 0.342
    Stream size : 6.42 GiB (87%)
    Writing library : x264 core 130 r2273 b3065e6
    Encoding settings : cabac=1 / ref=9 / deblock=1:-3:-3 / analyse=0x3:0x133 / me=umh / subme=11 / psy=1 / psy_rd=1.00:0.20 / mixed_ref=1 / me_range=48 / chroma_me=1 / trellis=2 / 8x8dct=1 / cqm=0 / deadzone=21,11 / fast_pskip=0 / chroma_qp_offset=-3 / threads=6 / lookahead_threads=1 / sliced_threads=0 / nr=0 / decimate=0 / interlaced=0 / bluray_compat=0 / constrained_intra=0 / bframes=9 / b_pyramid=2 / b_adapt=2 / b_bias=0 / direct=3 / weightb=1 / open_gop=0 / weightp=2 / keyint=240 / keyint_min=23 / scenecut=40 / intra_refresh=0 / rc=2pass / mbtree=0 / bitrate=7500 / ratetol=1.0 / qcomp=0.60 / qpmin=0 / qpmax=69 / qpstep=4 / cplxblur=20.0 / qblur=0.5 / ip_ratio=1.40 / pb_ratio=1.30 / aq=1:1.00
    Language : English

    Audio #1
    ID : 2
    Format : AC-3
    Format/Info : Audio Coding 3
    Mode extension : CM (complete main)
    Codec ID : A_AC3
    Duration : 2h 5mn
    Bit rate mode : Constant
    Bit rate : 192 Kbps
    Channel(s) : 2 channels
    Channel positions : Front: L R
    Sampling rate : 48.0 KHz
    Bit depth : 16 bits
    Compression mode : Lossy
    Stream size : 172 MiB (2%)
    Title : (DUB.VARUS,VIDEO)
    Language : Russian

    Audio #2
    ID : 3
    Format : AC-3
    Format/Info : Audio Coding 3
    Mode extension : CM (complete main)
    Codec ID : A_AC3
    Duration : 2h 5mn
    Bit rate mode : Constant
    Bit rate : 192 Kbps
    Channel(s) : 2 channels
    Channel positions : Front: L R
    Sampling rate : 48.0 KHz
    Bit depth : 16 bits
    Compression mode : Lossy
    Stream size : 172 MiB (2%)
    Title : (MVO.TNT)
    Language : Russian

    Audio #3
    ID : 4
    Format : AC-3
    Format/Info : Audio Coding 3
    Mode extension : CM (complete main)
    Codec ID : A_AC3
    Duration : 2h 5mn
    Bit rate mode : Constant
    Bit rate : 192 Kbps
    Channel(s) : 2 channels
    Channel positions : Front: L R
    Sampling rate : 48.0 KHz
    Bit depth : 16 bits
    Compression mode : Lossy
    Stream size : 172 MiB (2%)
    Title : AVO.MIHALEV)
    Language : Russian

    Audio #4
    ID : 5
    Format : AC-3
    Format/Info : Audio Coding 3
    Mode extension : CM (complete main)
    Codec ID : A_AC3
    Duration : 2h 5mn
    Bit rate mode : Constant
    Bit rate : 192 Kbps
    Channel(s) : 2 channels
    Channel positions : Front: L R
    Sampling rate : 48.0 KHz
    Bit depth : 16 bits
    Compression mode : Lossy
    Stream size : 172 MiB (2%)
    Title : (AVO.MIHALEV)
    Language : Russian

    Audio #5
    ID : 6
    Format : AC-3
    Format/Info : Audio Coding 3
    Mode extension : CM (complete main)
    Codec ID : A_AC3
    Duration : 2h 5mn
    Bit rate mode : Constant
    Bit rate : 192 Kbps
    Channel(s) : 2 channels
    Channel positions : Front: L R
    Sampling rate : 48.0 KHz
    Bit depth : 16 bits
    Compression mode : Lossy
    Stream size : 172 MiB (2%)
    Language : English

    Text
    ID : 7
    Format : UTF-8
    Codec ID : S_TEXT/UTF8
    Codec ID/Info : UTF-8 Plain Text
    Language : English

    Menu
    00:00:00.000 : :Chapter 01
    00:01:33.426 : :Chapter 02
    00:06:27.845 : :Chapter 03
    00:12:31.791 : :Chapter 04
    00:14:56.561 : :Chapter 05
    00:16:24.608 : :Chapter 06
    00:19:01.223 : :Chapter 07
    00:23:26.570 : :Chapter 08
    00:26:31.630 : :Chapter 09
    00:29:50.538 : :Chapter 10
    00:34:08.004 : :Chapter 11
    00:37:47.139 : :Chapter 12
    00:40:30.761 : :Chapter 13
    00:43:00.661 : :Chapter 14
    00:44:29.583 : :Chapter 15
    00:48:58.727 : :Chapter 16
    00:51:54.027 : :Chapter 17
    00:55:20.608 : :Chapter 18
    00:58:39.432 : :Chapter 19
    01:00:02.223 : :Chapter 20
    01:03:10.661 : :Chapter 21
    01:09:03.097 : :Chapter 22
    01:15:53.215 : :Chapter 23
    01:21:08.280 : :Chapter 24
    01:28:51.408 : :Chapter 25
    01:32:42.807 : :Chapter 26
    01:35:06.492 : :Chapter 27
    01:38:24.564 : :Chapter 28
    01:40:23.892 : :Chapter 29
    01:42:12.668 : :Chapter 30
    01:47:05.252 : :Chapter 31
    01:50:58.652 : :Chapter 32
    01:56:16.844 : :Chapter 33
    02:00:13.623 : :Chapter 34
    02:01:46.299 : :Chapter 35
    02:05:23.224 : :Chapter 36

    Скриншоты для ознакомления


    Релиз подготовил: |
    Размер скачиваемого торрента: 7.41 GB (7958122718 Bytes)

    Костер тщеславий / The Bonfire of the Vanities (1990) BDRip 720p от MediaClub | D, P, A торрент скачать бесплатно
    загрузка...
    Рейтинг →
     (голосов: 1, оценка 4/5, голосовать можно 1 раз )

    Другие торренты по теме:

  • Костер тщеславий / The Bonfire of the Vanities (1990) BDRip от HQCLUB скачать через торрент бесплатно
  • Костер тщеславий / The Bonfire of the Vanities (1990) BDRip-AVC от 0ptimus | D, P, A
  • Костер тщеславий / The Bonfire of the Vanities (1990) BDRip 1080р от FREEISLAND


    • Комментарии (0):

      Информация

      Информация

        Посетители, находящиеся в группе Гости, не могут оставлять комментарии в данной новости.

        ↓ Меню



        ↓ Опрос

        А Вы добавили сайт в закладки?
        Да
        Не


        Top 10 за месяц (Фильмы)