.
Авторизация | Регистрация
Хочешь лучшие торренты? Добавь свой email!
Добавить
» » Клиент / The Client (1994) BDRip от Leon-masl торрент скачать бесплатно




    Клиент / The Client (1994) BDRip от Leon-masl торрент скачать бесплатно

    Опубликовал: Админ | Дата: 27-02-2015, 11:09 | Просмотров: 325



    Детально о кино
    Русское название: Клиент
    Русское название в мировом прокате: The Client
    Создали в: 1994
    Категория жанра: Триллер, драма, криминал, детектив
    Главный режиссер: Джоэл Шумахер
    Актеры: Сьюзен Сарандон, Томми Ли Джонс, Мэри-Луиз Паркер, Энтони ЛаПалья, Дж.Т. Уолш, Энтони Эдвардс, Брэд Ренфро, Уилл Пэттон, Брэдли Уитфорд

    Сюжет фильма:
    11-летний Марк невольно становится свидетелем самоубийства адвоката, работающего на мафию. Преступники готовы избавиться от него любым способом. А представители закона озабочены только его показаниями и не гарантируют Марку и его семье полноценной защиты. Он самостоятельно решил обратиться за помощью к адвокату Рэджи Лав, чтобы сохранить свою жизнь и добиться справедливости. Экранизация произведения Джона Гришема Клиент.



    Снималось в: США
    Киностудия: Alcor Films, Regency Enterprises, Warner Bros. Pictures
    Время просмотра: 02:00:49
    Перевод текста: Профессиональный двухголосый, HTB

    Файл
    Кодек для видео: Xvid
    Качество фильма: BDRip
    Информация о видео: 720x304, 23,976 fps, 1529 kbps
    Информация о звуке: 48 kHz, AC3, 2 ch, 192 kbps
    MI
    Общее
    Полное имя : TheClient.1994.BDRip.avi
    Формат : AVI
    Формат/Информация : Audio Video Interleave
    Размер файла : 1,46 Гбайт
    Продолжительность : 2 ч. 0 м.
    Общий поток : 1731 Кбит/сек
    Программа кодирования : VirtualDubMod 1.5.10.3 | www.virtualdub-fr.org || (build 2550/release)
    Библиотека кодирования : VirtualDubMod build 2550/release

    Видео
    Идентификатор : 0
    Формат : MPEG-4 Visual
    Профиль формата : Advanced Simple@L5
    Параметр BVOP формата : 2
    Параметр QPel формата : Нет
    Параметр GMC формата : Без точки перехода
    Параметр матрицы формата : Выборочная
    Идентификатор кодека : XVID
    Идентификатор кодека/Подсказка : XviD
    Продолжительность : 2 ч. 0 м.
    Битрейт : 1529 Кбит/сек
    Ширина : 720 пикс.
    Высота : 304 пикс.
    Соотношение сторон : 2,35:1
    Частота кадров : 23,976 кадр/сек
    Цветовое пространство : YUV
    Подвыборка цветности : 4:2:0
    Битовая глубина : 8 бит
    Тип развёртки : Прогрессивная
    Метод сжатия : С потерями
    Бит/(Пиксели*Кадры) : 0.291
    Размер потока : 1,29 Гбайт (88%)
    Библиотека кодирования : XviD 73

    Аудио
    Идентификатор : 1
    Формат : AC-3
    Формат/Информация : Audio Coding 3
    Расширение режима : CM (complete main)
    Идентификатор кодека : 2000
    Продолжительность : 2 ч. 0 м.
    Вид битрейта : Постоянный
    Битрейт : 192 Кбит/сек
    Канал(ы) : 2 канала(ов)
    Расположение каналов : Front: L R
    Частота : 48,0 КГц
    Битовая глубина : 16 бит
    Метод сжатия : С потерями
    Размер потока : 166 Мбайт (11%)
    Выравнивание : Разделение по промежуткам
    Продолжительность промежутка : 42 мс. (1,00 видеокадр)
    Время предзагрузки промежутка : 500 ms
    Скриншоты для ознакомления


    Релиз подготовил: Leon-masl
    Залил: leon-masl
    Размер скачиваемого торрента: 1.46 GB (1567512576 Bytes)

    Клиент / The Client (1994) BDRip от Leon-masl торрент скачать бесплатно
    загрузка...
    Рейтинг →
     (голосов: 1, оценка 3/5, голосовать можно 1 раз )

    Другие торренты по теме:

  • Айон 3.7: Победители Тиамат / Aion 3.7 (2013) PC | клиент для Aion-Final
  • Клиент / The Client (1994) HDTVRip от Scarabey | Р скачать через торрент бесплатно
  • Клиент / The Client (1994) HDTVRip от Scarabey | Р скачать через торрент бесплатно
  • Клиент / The Client (1994) BDRip от HQCLUB
  • Клиент / The Client (1994) BDRip-AVC от Rulya74 | P2, A
  • Клиент / The Client (1994) BDRip 720p by msltel | P2, A
  • Клиент / The Client (1994) BDRip 1080p by msltel | P2, A скачать через торрент бесплатно
  • Клиент / The Client / Eui-roi-in (2011) BDRip 1080p от MediaClub | L1 скачать через торрент бесплатно


    • Комментарии (0):

      Информация

      Информация

        Посетители, находящиеся в группе Гости, не могут оставлять комментарии в данной новости.

        ↓ Меню



        ↓ Опрос

        А Вы добавили сайт в закладки?
        Да
        Не


        Top 10 за месяц (Фильмы)