.
Авторизация | Регистрация
» » Элизиум: Рай не на Земле / Elysium (2013) HDRip-AVC | Лицензия торрент скачать бесплатно




    Элизиум: Рай не на Земле / Elysium (2013) HDRip-AVC | Лицензия торрент скачать бесплатно

    Опубликовал: Админ | Дата: 27-02-2015, 11:09 | Просмотров: 361



    Детально о кино
    Русское название: Элизиум: Рай не на Земле
    Русское название в мировом прокате: Elysium
    Создали в: 2013
    Категория жанра: Фантастика, боевик, триллер, драма
    Главный режиссер: Нил Бломкамп
    Актеры: Мэтт Дэймон, Джоди Фостер, Шарлто Копли, Алиси Брага, Диего Луна, Вагнер Моура, Уильям Фихтнер, Карли Поуп, Майкл Шэнкс, Талиса Сото

    Сюжет:
    В 2154 году существует два класса людей: очень богатые, живущие на чистой, созданной руками человека, космической станции под названием Элизиум и остальные, живущие на перенаселённой разрушенной Земле. Безжалостный правительственный чиновник Министр Роудс не остановится ни перед чем для применения анти-иммиграционных законов и сохранения роскошного образа жизни граждан Элизиума. Когда неудачника Макса загоняют в угол, он соглашается взять на себя сложную миссию, которая в случае успеха не только спасёт ему жизнь, но и может привести к равенству этих поляризованных миров.



    Снималось в: США
    Киностудия: Media Rights Capital, QED International, Simon Kinberg Productions, Sony Pictures Entertainment (SPE), TriStar Pictures
    Время просмотра: 01:49:35
    Перевод текста: Дублированный (Лицензия)

    Файл
    Качество фильма: HDRip-AVC
    Информация о видео: 1024 x 428 (2.393) at 23.976 fps, ~ 1953 Кбит/сек, 0.186 Bits/Pixel
    Информация о звуке #1: AC3 448 Кбит/сек (6ch), 48,0 КГц, 16 бит Русский, Дубляж
    Информация о звуке #2: AC3 448 Кбит/сек (6ch), 48,0 КГц, 16 бит Английский
    Субтитры: Русские (forced, full), английские (forced, full)

    Релиз:

    Семпл

    MediaInfo:
    Формат : Matroska
    Версия формата : Version 2
    Размер файла : 2,18 Гбайт
    Продолжительность : 1 ч. 49 м.
    Общий поток : 2851 Кбит/сек
    Название фильма : Elysium.2013.D.HDRip
    Дата кодирования : UTC 2013-11-26 08:22:14
    Программа кодирования : mkvmerge v2.9.9 (;Tutu;) built on Nov 25 2009 21:13:32
    Библиотека кодирования : libebml v0.7.9 libmatroska v0.8.1

    Видео
    Идентификатор : 1
    Формат : AVC
    Формат/Информация : Advanced Video Codec
    Профиль формата : High@L4.1
    Параметр CABAC формата : Да
    Параметр ReFrames формата : 12 кадров
    Идентификатор кодека : V_MPEG4/ISO/AVC
    Продолжительность : 1 ч. 49 м.
    Битрейт : 1953 Кбит/сек
    Ширина : 1024 пикселя
    Высота : 428 пикселей
    Соотношение сторон : 2,40:1
    Режим частоты кадров : Постоянный
    Частота кадров : 23,976 кадра/сек
    Цветовое пространство : YUV
    Субдискретизация насыщенности : 4:2:0
    Битовая глубина : 8 бит
    Тип развёртки : Прогрессивная
    Бит/(Пиксели*Кадры) : 0.186
    Размер потока : 1,45 Гбайт (67%)
    Библиотека кодирования : x264 core 133 r2334 a3ac64b
    Настройки программы : cabac=1 / ref=12 / deblock=1:-3:-3 / analyse=0x3:0x113 / me=umh / subme=11 / psy=1 / psy_rd=1.00:0.25 / mixed_ref=0 / me_range=32 / chroma_me=1 / trellis=2 / 8x8dct=1 / cqm=0 / deadzone=21,11 / fast_pskip=1 / chroma_qp_offset=-4 / threads=12 / lookahead_threads=2 / sliced_threads=0 / nr=0 / decimate=0 / interlaced=0 / bluray_compat=0 / constrained_intra=0 / bframes=8 / b_pyramid=2 / b_adapt=2 / b_bias=0 / direct=3 / weightb=1 / open_gop=0 / weightp=2 / keyint=240 / keyint_min=23 / scenecut=40 / intra_refresh=0 / rc_lookahead=40 / rc=2pass / mbtree=1 / bitrate=1953 / ratetol=1.0 / qcomp=0.70 / qpmin=0 / qpmax=69 / qpstep=4 / cplxblur=20.0 / qblur=0.5 / vbv_maxrate=62500 / vbv_bufsize=78125 / nal_hrd=none / ip_ratio=1.40 / aq=1:1.00
    Язык : English
    Default : Нет
    Forced : Нет

    Аудио #1
    Идентификатор : 2
    Формат : AC-3
    Формат/Информация : Audio Coding 3
    Расширение режима : CM (complete main)
    Параметр Endianness формата : Big
    Идентификатор кодека : A_AC3
    Продолжительность : 1 ч. 49 м.
    Вид битрейта : Постоянный
    Битрейт : 448 Кбит/сек
    Каналы : 6 каналов
    Расположение каналов : Front: L C R, Side: L R, LFE
    Частота : 48,0 КГц
    Битовая глубина : 16 бит
    Метод сжатия : С потерями
    Размер потока : 351 Мбайт (16%)
    Заголовок : AC3.448.Kbps (6ch) Russian (Дубляж)
    Язык : Russian
    Default : Да
    Forced : Нет

    Аудио #2
    Идентификатор : 3
    Формат : AC-3
    Формат/Информация : Audio Coding 3
    Расширение режима : CM (complete main)
    Параметр Endianness формата : Big
    Идентификатор кодека : A_AC3
    Продолжительность : 1 ч. 49 м.
    Вид битрейта : Постоянный
    Битрейт : 448 Кбит/сек
    Каналы : 6 каналов
    Расположение каналов : Front: L C R, Side: L R, LFE
    Частота : 48,0 КГц
    Битовая глубина : 16 бит
    Метод сжатия : С потерями
    Размер потока : 351 Мбайт (16%)
    Заголовок : AC3.448.Kbps (6ch) English
    Язык : English
    Default : Нет
    Forced : Нет

    Текст #1
    Идентификатор : 4
    Формат : UTF-8
    Идентификатор кодека : S_TEXT/UTF8
    Идентификатор кодека/Информация : UTF-8 Plain Text
    Заголовок : Russian (Forced)
    Язык : Russian
    Default : Да
    Forced : Да

    Текст #2
    Идентификатор : 5
    Формат : UTF-8
    Идентификатор кодека : S_TEXT/UTF8
    Идентификатор кодека/Информация : UTF-8 Plain Text
    Заголовок : Russian (Full)
    Язык : Russian
    Default : Нет
    Forced : Нет

    Текст #3
    Идентификатор : 6
    Формат : UTF-8
    Идентификатор кодека : S_TEXT/UTF8
    Идентификатор кодека/Информация : UTF-8 Plain Text
    Заголовок : English (Full)
    Язык : English
    Default : Нет
    Forced : Нет

    Меню
    00:00:00.000 : en:00:00:00.000
    00:07:02.589 : en:00:07:02.589
    00:11:59.344 : en:00:11:59.344
    00:19:27.625 : en:00:19:27.625
    00:25:34.825 : en:00:25:34.825
    00:30:02.342 : en:00:30:02.342
    00:39:22.068 : en:00:39:22.068
    00:57:43.960 : en:00:57:43.960
    01:00:59.197 : en:01:00:59.197
    01:04:09.637 : en:01:04:09.637
    01:07:22.664 : en:01:07:22.664
    01:10:34.147 : en:01:10:34.147
    01:16:59.865 : en:01:16:59.865
    01:22:50.132 : en:01:22:50.132
    01:30:19.914 : en:01:30:19.914
    01:35:44.530 : en:01:35:44.530
    Скриншоты для ознакомления

    Размер скачиваемого торрента: 2.18 GB (2343486754 Bytes)

    Элизиум: Рай не на Земле / Elysium (2013) HDRip-AVC | Лицензия торрент скачать бесплатно
    загрузка...
    Рейтинг →
     (голосов: 1, оценка 4/5, голосовать можно 1 раз )

    Другие торренты по теме:

  • Элизиум: Рай не на Земле / Elysium (2013) CAMRip торрент скачать бесплатно
  • Элизиум: Рай не на Земле / Elysium (2013) CAMRip торрент скачать бесплатно
  • Элизиум: Рай не на Земле / Elysium (2013) CAMRip *PROPER* от INTERCINEMA торрент скачать бесплатно
  • Элизиум: Рай не на Земле / Elysium (2013) TS торрент скачать бесплатно
  • Элизиум: Рай не на Земле / Elysium (2013) TS *PROPER* от INTERCINEMA торрент скачать бесплатно
  • Элизиум: Рай не на Земле / Elysium (2013) DVDScreener торрент скачать бесплатно
  • Элизиум: Рай не на Земле / Elysium (2013) WEBRip торрент скачать бесплатно
  • Элизиум: Рай не на Земле / Elysium (2013) WEBRip от Один 777 скачать через торрент бесплатно


    • Комментарии (0):

      Информация

      Информация

        Посетители, находящиеся в группе Гости, не могут оставлять комментарии в данной новости.

        ↓ Меню



        ↓ Опрос

        А Вы добавили сайт в закладки?
        Да
        Не


        Top 10 за неделю (Фильмы)

        Ёлки 5 (2016) WEB-DLRip скачать торрент бесплатно

        (просмотров: 2471)
        Разрушение / Demolition (2015) BDRemux 1080p от ExKinoRay | L скачать торрент бесплатно

        (просмотров: 1101)
        Мой парень – киллер / Mr. Right (2015) WEB-DL 1080p | L скачать торрент бесплатно

        (просмотров: 1041)
        Экипаж (2016) BDRip от New-Team | D | Лицензия скачать торрент бесплатно
        АНОНСЫ МОИХ РАЗДАЧ
        (просмотров: 901)
        Экипаж (2016) BDRip от New-Team | D | Лицензия скачать торрент бесплатно
        АНОНСЫ МОИХ РАЗДАЧ
        (просмотров: 901)
        Гений / Genius (2016) WEB-DLRip 1080p | Звук TS скачать торрент бесплатно

        (просмотров: 881)
        Бригада (2002) HDDVDRip-AVC от TORRENT-45

        (просмотров: 811)
        Кухня (1-5 сезоны: 1-100 серии из 100 + 2 бонуса) / 2012-2015 / РУ / DVDRip, WEB-DLRip скачать торрент бесплатно

        (просмотров: 811)
        Равные / Equals (2015) WEB-DLRip | L2 скачать торрент бесплатно

        (просмотров: 801)
        Демон внутри / Вскрытие Джейн Доу / The Autopsy of Jane Doe (2016) WEB-DLRip от Scarabey | P скачать торрент бесплатно
        Мы В КОНТАКТЕ =)
        (просмотров: 801)