.
Авторизация | Регистрация
» » Приливы / The Hot Flashes (2013) WEB-DLRip | P2 скачать через торрент бесплатно




    Приливы / The Hot Flashes (2013) WEB-DLRip | P2 скачать через торрент бесплатно

    Опубликовал: Админ | Дата: 27-02-2015, 11:09 | Просмотров: 242



    Детально о кино
    Русское название: Приливы
    Русское название в мировом прокате: The Hot Flashes
    Создали в: 2013
    Категория жанра: комедия
    Главный режиссер: Сьюзэн Сейдельман
    Актеры: Брук Шилдс, Дэрил Ханна, Шарлотт Грэхэм, Карл Палмер, Ванда Сайкес, Эрик Робертс, Джессика Ротэ, Андреа Франкл

    Сюжет фильма:
    Пять бабушек бальзаковского возраста собрались в команду и решили вздрючить местных баскетбольных чемпионов. Все они когда-то в школе и колледже кидали мяч в кольцо и сейчас они решили бросить вызов команде не знающей поражений. Денежный приз они собираются пожертвовать на борьбу с раком груди.




    Снималось в: США
    Время просмотра: 01:39:34
    Перевод текста: Профессиональный (двухголосый) студия Elrom

    Файл
    Кодек для видео: XviD
    Качество фильма: WEB-DLRip (Исходник WEB-DL 720p)
    Информация о видео: 720x384 (1.88:1), 23.976 fps, XviD build 50 ~1887 kbps avg, 0.28 bit/pixel
    Информация о звуке: 48 kHz, AC3 Dolby Digital, 2/0 (L,R) ch, ~192.00 kbps avg
    Субтитры: нет

    Семпл

    MediaInfo

    Общее
    Полное имя : S:ФильмыПриливы. 2013. WEB-DLRip.avi
    Формат : AVI
    Формат/Информация : Audio Video Interleave
    Размер файла : 1,45 Гбайт
    Продолжительность : 1 ч. 39 м.
    Общий поток : 2089 Кбит/сек
    Программа кодирования : VirtualDubMod 1.5.10.3 | www.virtualdub-fr.org || (build 2550/release)
    Библиотека кодирования : VirtualDubMod build 2550/release

    Видео
    Идентификатор : 0
    Формат : MPEG-4 Visual
    Профиль формата : Advanced Simple@L5
    Параметр BVOP формата : 2
    Параметр QPel формата : Нет
    Параметр GMC формата : Без точки перехода
    Параметр матрицы формата : Выборочная
    Идентификатор кодека : XVID
    Идентификатор кодека/Подсказка : XviD
    Продолжительность : 1 ч. 39 м.
    Битрейт : 1887 Кбит/сек
    Ширина : 720 пикс.
    Высота : 384 пикс.
    Соотношение сторон : 1,875
    Частота кадров : 23,976 кадр/сек
    Цветовое пространство : YUV
    Подвыборка цветности : 4:2:0
    Битовая глубина : 8 бит
    Тип развёртки : Прогрессивная
    Метод сжатия : С потерями
    Бит/(Пиксели*Кадры) : 0.285
    Размер потока : 1,31 Гбайт (90%)
    Библиотека кодирования : XviD 1.2.1 (UTC 2008-12-04)

    Аудио
    Идентификатор : 1
    Формат : AC-3
    Формат/Информация : Audio Coding 3
    Расширение режима : CM (complete main)
    Идентификатор кодека : 2000
    Продолжительность : 1 ч. 39 м.
    Вид битрейта : Постоянный
    Битрейт : 192 Кбит/сек
    Каналы : 2 канала
    Расположение каналов : Front: L R
    Частота : 48,0 КГц
    Битовая глубина : 16 бит
    Метод сжатия : С потерями
    Размер потока : 137 Мбайт (9%)
    Выравнивание : Разделение по промежуткам
    Продолжительность промежутка : 42 мс. (1,00 видеокадр)
    Время предзагрузки промежутка : 500 ms

    Скриншоты для ознакомления

    Залил: Losk
    Размер скачиваемого торрента: 1.45 GB (1560205312 Bytes)

    Приливы / The Hot Flashes (2013) WEB-DLRip | P2 скачать через торрент бесплатно
    загрузка...
    Рейтинг →
     (голосов: 1, оценка 3/5, голосовать можно 1 раз )

    Другие торренты по теме:



      Комментарии (0):

      Информация

      Информация

        Посетители, находящиеся в группе Гости, не могут оставлять комментарии в данной новости.

        ↓ Меню



        ↓ Опрос

        А Вы добавили сайт в закладки?
        Да
        Не


        Top 10 за неделю (Фильмы)