.
Авторизация | Регистрация
» » Ничего не вижу, ничего не слышу / See No Evil, Hear No Evil (1989) BDRip от New-Team скачать через торрент бесплатно




    Ничего не вижу, ничего не слышу / See No Evil, Hear No Evil (1989) BDRip от New-Team скачать через торрент бесплатно

    Опубликовал: Админ | Дата: 27-02-2015, 11:09 | Просмотров: 288


    Снималось в: США
    Создали в: TriStar Pictures
    Категория жанра: боевик, триллер, комедия, криминал
    Создали в: 1989
    Время просмотра: 01:42:04

    Перевод текста: Профессиональный (Многоголосый закадровый) (ОРТ)
    Оригинальная аудиодорожка: нет
    Субтитры подготовлены: нет

    Главный режиссер: Артур Хиллер / Arthur Hiller

    Актеры:
    Ричард Прайор (Wallace ;Wally; Karue), Джин Уайлдер (Dave Lyons), Джоан Северанс (Eve), Кевин Спейси (Kirgo), Алан Норт (Braddock), Энтони Зерби (Sutherland), Луис Гьямбалво (Gatlin), Керстен Чайлдз (Adele), Харди Роулз (Beefy Tourist), Одри Дж. Нинан (Policewoman and Marilyn), Лоурен Том (Mitzie), Джон Каподиче (Scotto)...

    Сюжет:
    На глазах Дэйва совершается убийство, но он глухой. Уолли все слышал, но он слепой. Вместе они — идеальные свидетели преступления… для самих преступников и единственные подозреваемые для полицейских.
    И те и другие начинают поиски неуловимой парочки. Но вдвоем они оказываются хитрее своих преследователей. В конце концов, слепой с глухим решают сами вершить правосудие…




    Исходник: BDRemux 1080p
    Тип релиза: BDRip
    Контейнер: AVI

    Информация о видео: 688x368 (1,870:1), 23,976 fps, XviD ~ 884 kbps avg, 0.146 bit/pixel
    Информация о звуке: 48 kHz, MP3 2.0, 128 kbps

    Раздача от:
    MediaInfo

    Общее
    Полное имя : Nichego.ne.vischu.nichego.ne.slyschu.1989.BDRip-745_New-team_by_AVP_Studio.avi
    Формат : AVI
    Формат/Информация : Audio Video Interleave
    Размер файла : 746 Мбайт
    Продолжительность : 1 ч. 42 м.
    Общий поток : 1021 Кбит/сек
    Программа кодирования : VirtualDubModRus 1.5.10.2 (build 2542/release)
    Библиотека кодирования : VirtualDubMod build 2542/release

    Видео
    Идентификатор : 0
    Формат : MPEG-4 Visual
    Профиль формата : Advanced Simple@L5
    Параметр BVOP формата : 1
    Параметр QPel формата : Нет
    Параметр GMC формата : Без точки перехода
    Параметр матрицы формата : Выборочная
    Идентификатор кодека : XVID
    Идентификатор кодека/Подсказка : XviD
    Продолжительность : 1 ч. 42 м.
    Битрейт : 884 Кбит/сек
    Ширина : 688 пикселей
    Высота : 368 пикселей
    Соотношение сторон : 1,870
    Частота кадров : 23,976 кадра/сек
    Цветовое пространство : YUV
    Субдискретизация насыщенности : 4:2:0
    Битовая глубина : 8 бит
    Тип развёртки : Прогрессивная
    Метод сжатия : С потерями
    Бит/(Пиксели*Кадры) : 0.146
    Размер потока : 645 Мбайт (87%)
    Библиотека кодирования : XviD 73

    Аудио
    Идентификатор : 1
    Формат : MPEG Audio
    Версия формата : Version 1
    Профиль формата : Layer 3
    Идентификатор кодека : 55
    Идентификатор кодека/Подсказка : MP3
    Продолжительность : 1 ч. 42 м.
    Вид битрейта : Постоянный
    Битрейт : 128 Кбит/сек
    Каналы : 2 канала
    Частота : 48,0 КГц
    Метод сжатия : С потерями
    Размер потока : 93,4 Мбайт (13%)
    Выравнивание : Соединение по промежуткам
    Продолжительность промежутка : 42 мс. (1,00 видеокадр)
    Время предзагрузки промежутка : 504 мс.
    Библиотека кодирования : LAME3.99r
    Залил: AVPStudio
    Размер скачиваемого торрента: 745.70 MB (781922304 Bytes)


    Ничего не вижу, ничего не слышу / See No Evil, Hear No Evil (1989) BDRip от New-Team скачать через торрент бесплатно
    загрузка...
    Рейтинг →
     (голосов: 1, оценка 3/5, голосовать можно 1 раз )

    Другие торренты по теме:

  • Секс и ничего лишнего / My Awkward Sexual Adventure (2012) DVD5 от Youtracker | лицензия | сжатый торрент скачать бесплатно
  • Вы еще ничего не видели / Vous navez encore rien vu (2012) HDRip торрент скачать бесплатно
  • Ничего не вижу, ничего не слышу / See No Evil, Hear No Evil (1989) BDRip 1080p торрент скачать бесплатно
  • Никто не знает ничего / Nobody Knows Anything! (2003) BDRemux 1080i торрент скачать бесплатно
  • Вадяра Блюз - Ничего смешного (2013) MP3 торрент скачать бесплатно
  • Ничья земля / No Mans Land (1987) HDTVRip | P2 торрент скачать бесплатно
  • Ничего себе поездочка / Joy Ride (2001) HDTVRip-AVC | D, P торрент скачать бесплатно
  • Ничего себе поездочка 2: Смерть впереди / Joy Ride 2: Dead Ahead (2008) WEB-DLRip-AVC торрент скачать бесплатно


    • Комментарии (0):

      Информация

      Информация

        Посетители, находящиеся в группе Гости, не могут оставлять комментарии в данной новости.

        ↓ Меню



        ↓ Опрос

        А Вы добавили сайт в закладки?
        Да
        Не


        Top 10 за неделю (Фильмы)