.
Авторизация | Регистрация
» » Встреча со шпионом / Spotkanie ze szpiegiem (1964) DVDRip от New-Team | D скачать через торрент бесплатно




    Встреча со шпионом / Spotkanie ze szpiegiem (1964) DVDRip от New-Team | D скачать через торрент бесплатно

    Опубликовал: Админ | Дата: 27-02-2015, 11:09 | Просмотров: 281


    Создали в: 1964
    Снималось в: Польша
    Киностудия: Zespol Filmowy Syrena
    Время просмотра: 01:41:25

    Перевод текста: Профессиональный (полное дублирование)
    Субтитры: нет
    Категория жанра: детектив
    Оригинальная аудиодорожка: нет

    Главный режиссер: Ян Батори / Jan Batory

    Актеры: Беата Тышкевич / Beata Tyszkiewicz (Мария Полинская / Maria Polinska) дублирует Наталья Фатеева, Катажина Ланевская /Katarzyna Laniewska (Бася Гедровская / Basia Giedrowska) дублирует Г.Самохина, Игнаций Маховский /Ignacy Machowski (Бернард /Bernard) дублирует Михаил Глузский, Станислав Микульский /Stanislaw Mikulski (Лейтенант Бачный/Lt. Baczny) дублирует Ю.Боголюбов, Збигнев Запасевич /Zbigniew Zapasiewicz (Капитан Крез / Capt. Kres) дублирует Эдуард Бредун, Ежи Вальчак/ Jerzy Walczak (Зигмунд /Zygmunt) дублирует В.Ферапонтов, Хенрик Бонк/Henryk Bak (Майор Люба/Maj. Luba) дублирует А.Толбузин, Станислав Гронковский/Stanislaw Gronkowski (Людвиг Митула/Ludwik Mitula) и другие.

    Сюжет: Иностранная разведка засылает на территорию Польши шпиона под именем Бернард. Служба польской радиолокации запеленговывает место приземления шпиона. Контрразведка начинает следить за действиями Бернарда, и вскоре трое оперативников обнаруживают сообщницу шпиона медсестру Марию…
    Этот знаменитый шпионский триллер Яна Баторы, стал лидером проката всех европейских соцстран. Успех его в СССР был столь велик, что приняли решение создать аналогичную советскую картину. В 1965-1966 годах по мотивам польского детектива режиссер Анатолий Бобровский снял фильм Человек без паспорта с Владимиром Заманским в главной роли...



    Исходник: DVD5 R5
    Тип релиза: DVDRip
    Контейнер: AVI

    Информация о видео: 688x528 (4:3), 25 fps, XviD ~ 1853 kbps avg, 0.204 bit/pixel
    Информация о звуке: 48 kHz, AC3, 2 ch, 192.00 kbps

    Раздача от:
    MediaInfo

    Общее
    Полное имя : Vstrecha.so.shpionom.D.1964.DVDRip_Youtracker_by_AVP Studio.avi
    Формат : AVI
    Формат/Информация : Audio Video Interleave
    Размер файла : 1,46 Гбайт
    Продолжительность : 1 ч. 41 м.
    Общий поток : 2055 Кбит/сек
    Программа кодирования : VirtualDubMod 1.5.10.3 | www.virtualdub-fr.org || (build 2550/release)
    Библиотека кодирования : VirtualDubMod build 2550/release

    Видео
    Идентификатор : 0
    Формат : MPEG-4 Visual
    Профиль формата : Advanced Simple@L5
    Параметр BVOP формата : 1
    Параметр QPel формата : Нет
    Параметр GMC формата : Без точки перехода
    Параметр матрицы формата : Выборочная
    Идентификатор кодека : XVID
    Идентификатор кодека/Подсказка : XviD
    Продолжительность : 1 ч. 41 м.
    Битрейт : 1853 Кбит/сек
    Ширина : 688 пикселей
    Высота : 528 пикселей
    Соотношение сторон : 4:3
    Частота кадров : 25,000 кадров/сек
    Цветовое пространство : YUV
    Субдискретизация насыщенности : 4:2:0
    Битовая глубина : 8 бит
    Тип развёртки : Прогрессивная
    Метод сжатия : С потерями
    Бит/(Пиксели*Кадры) : 0.204
    Размер потока : 1,31 Гбайт (90%)
    Библиотека кодирования : XviD 65

    Аудио
    Идентификатор : 1
    Формат : AC-3
    Формат/Информация : Audio Coding 3
    Расширение режима : CM (complete main)
    Идентификатор кодека : 2000
    Продолжительность : 1 ч. 41 м.
    Вид битрейта : Постоянный
    Битрейт : 192 Кбит/сек
    Каналы : 2 канала
    Расположение каналов : Front: L R
    Частота : 48,0 КГц
    Битовая глубина : 16 бит
    Метод сжатия : С потерями
    Размер потока : 139 Мбайт (9%)
    Выравнивание : Разделение по промежуткам
    Продолжительность промежутка : 40 мс. (1,00 видеокадр)
    Время предзагрузки промежутка : 500 мс

    Скриншоты для ознакомления



    Залил: AVPStudio
    Размер скачиваемого торрента: 1.46 GB (1563297792 Bytes)

    Встреча со шпионом / Spotkanie ze szpiegiem (1964) DVDRip от New-Team | D скачать через торрент бесплатно
    загрузка...
    Рейтинг →
     (голосов: 1, оценка 5/5, голосовать можно 1 раз )

    Другие торренты по теме:



      Комментарии (0):

      Информация

      Информация

        Посетители, находящиеся в группе Гости, не могут оставлять комментарии в данной новости.

        ↓ Меню



        ↓ Опрос

        А Вы добавили сайт в закладки?
        Да
        Не


        Top 10 за неделю (Фильмы)