.
Авторизация | Регистрация
» » Продано за долги / 4Closed (2013) WEB-DLRip скачать через торрент бесплатно




    Продано за долги / 4Closed (2013) WEB-DLRip скачать через торрент бесплатно

    Опубликовал: Админ | Дата: 27-02-2015, 11:09 | Просмотров: 431



    Детально о кино
    Русское название: Продано за долги
    Русское название в мировом прокате: 4Closed
    Создали в: 2013
    Категория жанра: триллер, драма
    Главный режиссер: Ник Лион / Nick Lyon
    Актеры: Джеймс Дентон, Кристина ДеРоса, Джейми Кеннеди, Марли Мэтлин, Пол Сорвино

    Сюжет фильма:
    Когда молодая семья покупает себе новый дом на рынке вторичного жилья, то сразу же после новоселья старый владелец начинает терроризировать их... Он не остановится ни перед чем, чтобы вернуть свой дом обратно!




    Снималось в: США
    Время просмотра: 01:30:53
    Перевод текста: Любительское (одноголосое) den904
    перевод на русский язык Antonio

    Файл
    Кодек для видео: XviD
    Качество фильма: WEB-DLRip
    Информация о видео: 720x400 (1.80:1), 23.976 fps, XviD build 50 ~2090 kbps avg, 0.30 bit/pixel
    Информация о звуке: 48 kHz, AC3 Dolby Digital, 2/0 (L,R) ch, ~192.00 kbps avg
    Субтитры: нет

    Семпл

    MediaInfo

    Общее
    Полное имя : S:ФильмыПродано за долги. 2013. WEB-DLRip.avi
    Формат : AVI
    Формат/Информация : Audio Video Interleave
    Размер файла : 1,45 Гбайт
    Продолжительность : 1 ч. 30 м.
    Общий поток : 2291 Кбит/сек
    Программа кодирования : VirtualDubMod 1.5.10.3 | www.virtualdub-fr.org || (build 2550/release)
    Библиотека кодирования : VirtualDubMod build 2550/release

    Видео
    Идентификатор : 0
    Формат : MPEG-4 Visual
    Профиль формата : Advanced Simple@L5
    Параметр BVOP формата : 2
    Параметр QPel формата : Нет
    Параметр GMC формата : Без точки перехода
    Параметр матрицы формата : Выборочная
    Идентификатор кодека : XVID
    Идентификатор кодека/Подсказка : XviD
    Продолжительность : 1 ч. 30 м.
    Битрейт : 2090 Кбит/сек
    Ширина : 720 пикс.
    Высота : 400 пикс.
    Соотношение сторон : 16:9
    Частота кадров : 23,976 кадр/сек
    Цветовое пространство : YUV
    Подвыборка цветности : 4:2:0
    Битовая глубина : 8 бит
    Тип развёртки : Прогрессивная
    Метод сжатия : С потерями
    Бит/(Пиксели*Кадры) : 0.303
    Размер потока : 1,33 Гбайт (91%)
    Библиотека кодирования : XviD 1.2.1 (UTC 2008-12-04)

    Аудио
    Идентификатор : 1
    Формат : AC-3
    Формат/Информация : Audio Coding 3
    Расширение режима : CM (complete main)
    Идентификатор кодека : 2000
    Продолжительность : 1 ч. 30 м.
    Вид битрейта : Постоянный
    Битрейт : 192 Кбит/сек
    Каналы : 2 канала
    Расположение каналов : Front: L R
    Частота : 48,0 КГц
    Битовая глубина : 16 бит
    Метод сжатия : С потерями
    Размер потока : 125 Мбайт (8%)
    Выравнивание : Разделение по промежуткам
    Продолжительность промежутка : 42 мс. (1,00 видеокадр)
    Время предзагрузки промежутка : 500 ms

    Скриншоты для ознакомления

    Залил: Losk
    Размер скачиваемого торрента: 1.45 GB (1562015744 Bytes)

    Продано за долги / 4Closed (2013) WEB-DLRip скачать через торрент бесплатно
    загрузка...
    Рейтинг →
     (голосов: 1, оценка 5/5, голосовать можно 1 раз )

    Другие торренты по теме:

  • Продано за долги / 4Closed (2013) WEB-DLRip-AVC от CINEMANIA | L1 скачать через торрент бесплатно
  • Продано за долги / 4Closed (2013) WEB-DL 720p от CINEMANIA | L1 скачать через торрент бесплатно
  • Продано за долги / 4Closed (2013) WEB-DLRip | L1 скачать через торрент бесплатно
  • Продано за долги / 4Closed (2013) BDRip 1080p от CINEMANIA | L1 скачать через торрент бесплатно
  • Продано за долги / 4Closed (2013) BDRip 720p от CINEMANIA | L1 скачать через торрент бесплатно
  • Книга,которая сама продает и собирает подписчиков. торрент скачать бесплатно
  • Галина Костяева - Книга,которая сама продает и собирает подписчиков. (2014) PDF торрент скачать бесплатно
  • Кузьмина Мария - Как продать или купить квартиру, комнату, дом (2016) FB2, RTF скачать торрент бесплатно


    • Комментарии (0):

      Информация

      Информация

        Посетители, находящиеся в группе Гости, не могут оставлять комментарии в данной новости.

        ↓ Меню



        ↓ Опрос

        А Вы добавили сайт в закладки?
        Да
        Не


        Top 10 за неделю (Фильмы)