.
Авторизация | Регистрация
» » Перси Джексон и Море чудовищ / Percy Jackson: Sea of Monsters (2013) HDRip-AVC | Лицензия скачать через торрент бесплатно




    Перси Джексон и Море чудовищ / Percy Jackson: Sea of Monsters (2013) HDRip-AVC | Лицензия скачать через торрент бесплатно

    Опубликовал: Админ | Дата: 27-02-2015, 11:09 | Просмотров: 251



    Снималось в: США
    Категория жанра: фэнтези, приключения, семейный
    Создали в: 2013
    Время просмотра: 01:46:30
    Перевод текста: Профессиональный (дублированный) Лицензия
    Субтитры подготовлены: Английские

    Главный режиссер: Тор Фройденталь / Thor Freudenthal

    Актеры: Логан Лерман, Александра Даддарио, Дуглас Смит, Ливэн Рамбин, Брэндон Т. Джексон, Джейк Эйбел, Энтони Хэд, Стэнли Туччи, Коннор Крэш Данн, Палома Квиатковски...

    Сюжет:
    Перси отправляется на поиски своего друга, сатира Гроувера, попавшего в ловушку к циклопу Полифему. На кону стоит не только сатир, но и весь Лагерь полукровок: кто-то отравил священное дерево Талии, а это значит, что защита лагеря вот-вот падет и уже ничто не сможет удержать чудовищ от вторжения. Исцелить дерево способно только мифическое Золотое руно, спрятанное на острове Полифема — и, чтобы добраться до него, необходимо переплыть Море Чудовищ и сразиться с его обитателями — Сциллой и Харибдой, сладкоголосыми сиренами и коварной волшебницей Цирцеей.



    Качество фильма: HDRip-AVC
    Информация о видео: 1024 x 432 (2.370) at 23.976 fps ~ 2165 Кбит/сек: 0.204 Bits/Pixel
    Информация о звуке #1: AC3 448 Кбит/сек (6ch), 48,0 КГц, 16 бит Русский, Дубляж
    Информация о звуке #2: AC3 448 Кбит/сек (6ch), 48,0 КГц, 16 бит Английский
    Дополнительно: Сохранены оригинальные чаптеры как на Blu-ray

    Релиз подготовил:

    Семпл

    MediaInfo:
    Формат : Matroska
    Версия формата : Version 2
    Размер файла : 2,28 Гбайт
    Продолжительность : 1 ч. 46 м.
    Общий поток : 3060 Кбит/сек
    Дата кодирования : UTC 2013-11-26 16:32:44
    Программа кодирования : mkvmerge v2.9.9 (;Tutu;) built on Nov 25 2009 21:13:32
    Библиотека кодирования : libebml v0.7.9 libmatroska v0.8.1

    Видео
    Идентификатор : 1
    Формат : AVC
    Формат/Информация : Advanced Video Codec
    Профиль формата : High@L4.1
    Параметр CABAC формата : Да
    Параметр ReFrames формата : 12 кадров
    Идентификатор кодека : V_MPEG4/ISO/AVC
    Продолжительность : 1 ч. 46 м.
    Битрейт : 2165 Кбит/сек
    Ширина : 1024 пикселя
    Высота : 432 пикселя
    Соотношение сторон : 2,40:1
    Режим частоты кадров : Постоянный
    Частота кадров : 23,976 кадра/сек
    Цветовое пространство : YUV
    Субдискретизация насыщенности : 4:2:0
    Битовая глубина : 8 бит
    Тип развёртки : Прогрессивная
    Бит/(Пиксели*Кадры) : 0.204
    Размер потока : 1,56 Гбайт (69%)
    Библиотека кодирования : x264 core 133 r2334 a3ac64b
    Настройки программы : cabac=1 / ref=12 / deblock=1:-3:-3 / analyse=0x3:0x113 / me=umh / subme=11 / psy=1 / psy_rd=1.00:0.25 / mixed_ref=0 / me_range=32 / chroma_me=1 / trellis=2 / 8x8dct=1 / cqm=0 / deadzone=21,11 / fast_pskip=1 / chroma_qp_offset=-4 / threads=12 / lookahead_threads=2 / sliced_threads=0 / nr=0 / decimate=0 / interlaced=0 / bluray_compat=0 / constrained_intra=0 / bframes=8 / b_pyramid=2 / b_adapt=2 / b_bias=0 / direct=3 / weightb=1 / open_gop=0 / weightp=2 / keyint=240 / keyint_min=23 / scenecut=40 / intra_refresh=0 / rc_lookahead=40 / rc=2pass / mbtree=1 / bitrate=2165 / ratetol=1.0 / qcomp=0.70 / qpmin=0 / qpmax=69 / qpstep=4 / cplxblur=20.0 / qblur=0.5 / vbv_maxrate=62500 / vbv_bufsize=78125 / nal_hrd=none / ip_ratio=1.40 / aq=1:1.00
    Язык : English
    Default : Нет
    Forced : Нет

    Аудио #1
    Идентификатор : 2
    Формат : AC-3
    Формат/Информация : Audio Coding 3
    Расширение режима : CM (complete main)
    Параметр Endianness формата : Big
    Идентификатор кодека : A_AC3
    Продолжительность : 1 ч. 46 м.
    Вид битрейта : Постоянный
    Битрейт : 448 Кбит/сек
    Каналы : 6 каналов
    Расположение каналов : Front: L C R, Side: L R, LFE
    Частота : 48,0 КГц
    Битовая глубина : 16 бит
    Метод сжатия : С потерями
    Размер потока : 341 Мбайт (15%)
    Заголовок : AC3.448.Kbps (6ch) Russian (Дубляж)
    Язык : Russian
    Default : Да
    Forced : Нет

    Аудио #2
    Идентификатор : 3
    Формат : AC-3
    Формат/Информация : Audio Coding 3
    Расширение режима : CM (complete main)
    Параметр Endianness формата : Big
    Идентификатор кодека : A_AC3
    Продолжительность : 1 ч. 46 м.
    Вид битрейта : Постоянный
    Битрейт : 448 Кбит/сек
    Каналы : 2 канала
    Расположение каналов : Front: L R
    Частота : 48,0 КГц
    Битовая глубина : 16 бит
    Метод сжатия : С потерями
    Размер потока : 341 Мбайт (15%)
    Заголовок : AC3.4480.Kbps (6ch) English
    Язык : English
    Default : Нет
    Forced : Нет

    Текст
    Идентификатор : 4
    Формат : UTF-8
    Идентификатор кодека : S_TEXT/UTF8
    Идентификатор кодека/Информация : UTF-8 Plain Text
    Заголовок : English (SDH)
    Язык : English
    Default : Нет
    Forced : Нет

    Меню
    00:00:00.000 : en:1
    00:04:06.000 : en:2
    00:06:44.000 : en:3
    00:09:32.000 : en:4
    00:13:54.000 : en:5
    00:19:18.000 : en:6
    00:20:49.000 : en:7
    00:22:11.000 : en:8
    00:25:30.000 : en:9
    00:28:24.000 : en:10
    00:30:28.000 : en:11
    00:33:21.000 : en:12
    00:37:02.000 : en:13
    00:39:50.000 : en:14
    00:45:17.000 : en:15
    00:48:51.000 : en:16
    00:52:44.000 : en:17
    00:56:36.000 : en:18
    01:00:21.000 : en:19
    01:03:37.000 : en:20
    01:05:42.000 : en:21
    01:10:43.000 : en:22
    01:12:33.000 : en:23
    01:16:54.000 : en:24
    01:19:40.000 : en:25
    01:23:03.000 : en:26
    01:25:49.000 : en:27
    01:29:55.000 : en:28
    01:32:48.000 : en:29
    01:34:26.000 : en:30
    01:36:09.000 : en:31
    01:37:39.000 : en:32
    Скриншоты для ознакомления

    Размер скачиваемого торрента: 2.28 GB (2444441796 Bytes)

    Перси Джексон и Море чудовищ / Percy Jackson: Sea of Monsters (2013) HDRip-AVC | Лицензия скачать через торрент бесплатно
    загрузка...
    Рейтинг →
     (голосов: 1, оценка 4/5, голосовать можно 1 раз )

    Другие торренты по теме:



      Комментарии (0):

      Информация

      Информация

        Посетители, находящиеся в группе Гости, не могут оставлять комментарии в данной новости.

        ↓ Меню



        ↓ Опрос

        А Вы добавили сайт в закладки?
        Да
        Не


        Top 10 за неделю (Фильмы)